<?xml version="1.0" standalone="no"?>
<!DOCTYPE svg PUBLIC "-//W3C//DTD SVG 1.1//EN" "http://www.w3.org/Graphics/SVG/1.1/DTD/svg11.dtd" >
<svg xmlns="http://www.w3.org/2000/svg">
<metadata>
This is a custom SVG font generated by IcoMoon.
<iconset grid="16"></iconset>
</metadata>
<defs>
<font id="IcoMoon" horiz-adv-x="512" >
<font-face units-per-em="512" ascent="480" descent="-32" />
<missing-glyph horiz-adv-x="512" />
<glyph class="hidden" unicode="&#xf000;" d="M0,480L 512 -32L0 -32 z" horiz-adv-x="0" />
<glyph unicode="&#xe200;" d="M 133.002,341.661c 16.416,16.422, 43.001,16.422, 59.402,0.016l 3.913-3.934l 50.552,50.578l-3.937,3.94 c-28.812,28.85-69.257,38.939-106.21,30.261C 131.425,455.113, 103.178,479.984, 69.135,480C 31.31,480, 0.658,449.279, 0.65,411.421 c0-32.668, 22.795-60, 53.331-66.915c-11.569-38.725-2.121-82.417, 28.423-112.992l 113.913-113.95l 50.498,50.607L 132.91,282.114 C 116.569,298.475, 116.539,325.177, 133.002,341.661zM 511.356,411.421C 511.364,449.302, 480.697,480, 442.864,480c-34.617,0-63.239-25.722-67.841-59.119 c-38.537,11.332-81.892,1.748-112.32-28.704l-113.92-113.95l 50.551-50.586l 113.883,113.928c 16.47,16.483, 42.994,16.453, 59.342,0.092 c 16.4-16.415, 16.4-43.057-0.016-59.478l-3.897-3.918l 50.505-50.624l 3.929,3.964c 30.229,30.283, 39.839,73.378, 28.806,111.819 C 485.461,347.841, 511.356,376.606, 511.356,411.421zM 453.133,104.468c 9.051,37.229-0.988,78.162-30.054,107.25L 309.334,325.714l-50.551-50.561l 113.76-114.006 c 16.47-16.498, 16.432-43.048, 0.092-59.424c-16.401-16.407-43.002-16.407-59.418,0.015l-3.883,3.895l-50.497-50.623l 3.866-3.864 c 30.758-30.797, 74.809-40.219, 113.684-28.244C 382.703-8.439, 410.354-32, 443.516-32C 481.318-32, 512-1.325, 512,36.563 C 512,71.163, 486.41,99.791, 453.133,104.468zM 306.172,215.658L 192.404,101.662c-16.355-16.384-43.017-16.414-59.472,0.062c-16.409,16.452-16.416,43.049-0.022,59.485 l 3.904,3.887l-50.543,50.562l-3.867-3.856c-29.38-29.401-39.28-70.917-29.725-108.491C 22.48,96.181,0,68.994,0,36.563 C-0.008-1.31, 30.666-32, 68.491-32c 32.55,0.016, 59.794,22.709, 66.77,53.191c 37.351-9.276, 78.499,0.652, 107.672,29.878 l 113.745,113.98L 306.172,215.658z" data-tags="joomla, cms" />
<glyph unicode="&#xe005;" d="M0,160L 96,64L 256,224L 416,64L 512,160L 256.001,416 z" data-tags="arrow-up, upload, top" />
<glyph unicode="&#xe006;" d="M 192,480L 96,384L 256,224L 96,64L 192-32L 448,224 z" data-tags="arrow-right, right, next" />
<glyph unicode="&#xe007;" d="M 512,288L 416,384L 256,224L 96,384L0,288L 256,32.001 z" data-tags="arrow-down, download, bottom" />
<glyph unicode="&#xe008;" d="M 320-32L 416,64L 256,224L 416,384L 320,480L 64,224 z" data-tags="arrow-left, previous, left" />
<glyph unicode="&#xe003;" d="M 416,384L 320,480L 64,224L 320-32L 416,64L 256,224 zM0,480L0-32L 64-32L 64,224L 64,480 z" data-tags="arrow-first, first, left" />
<glyph unicode="&#xe004;" d="M 96,64L 192-32L 448,224L 192,480L 96,384L 256,224 zM 512-32L 512,480L 448,480L 448,224L 448-32 z" data-tags="arrow-last, last, right" />
<glyph unicode="&#xe009;" d="M 512,224C 512,82.615, 397.385-32, 256-32s -256,114.615, -256,256s 114.615,256, 256,256S 512,365.385, 512,224z M 48,224 c 0-114.875 93.125-208 208-208S 464,109.125, 464,224s -93.125,208, -208,208S 48,338.875, 48,224zM 278.627,374.628l 128-128.001c 12.497-12.496 12.497-32.757 0-45.254c -12.497-12.497 -32.758-12.497,-45.255,0L 288,274.745 L 288,96 c 0-17.673 -14.327-32 -32-32c-17.673,0, -32,14.327, -32,32l0,178.745 l -73.372-73.373c -12.497-12.497 -32.759-12.497,-45.256,0 C 99.124,207.621, 96,215.811, 96,224s 3.124,16.379, 9.372,22.627l 128,128.001C 245.869,387.124, 266.131,387.124, 278.627,374.628z" data-tags="arrow-up, upload, top" />
<glyph unicode="&#xe00a;" d="M 256,480C 114.615,480,0,365.385,0,224s 114.615-256, 256-256s 256,114.615, 256,256S 397.385,480, 256,480z M 256,16 c-114.875,0-208,93.125-208,208S 141.125,432, 256,432s 208-93.125, 208-208S 370.875,16, 256,16zM 406.628,246.627l-128.001,128c-12.496,12.497-32.757,12.497-45.254,0c-12.497-12.497-12.497-32.758,0-45.255L 306.745,256 L 128,256 c-17.673,0-32-14.327-32-32c0-17.673, 14.327-32, 32-32l 178.745,0 l-73.373-73.372c-12.497-12.497-12.497-32.759,0-45.256 C 239.621,67.124, 247.811,64, 256,64s 16.379,3.124, 22.627,9.372l 128.001,128C 419.124,213.869, 419.124,234.131, 406.628,246.627z" data-tags="arrow-right, right, next" />
<glyph unicode="&#xe00b;" d="M 512,224C 512,365.385, 397.385,480, 256,480s -256-114.615, -256-256s 114.615-256, 256-256S 512,82.615, 512,224z M 48,224 c 0,114.875 93.125,208 208,208S 464,338.875, 464,224s -93.125-208, -208-208S 48,109.125, 48,224zM 278.627,73.372l 128,128.001c 12.497,12.496 12.497,32.757 0,45.254c -12.497,12.497 -32.758,12.497,-45.255,0L 288,173.255 L 288,352 c 0,17.673 -14.327,32 -32,32c-17.673,0, -32-14.327, -32-32l0-178.745 l -73.372,73.373c -12.497,12.497 -32.759,12.497,-45.256,0 C 99.124,240.379, 96,232.189, 96,224s 3.124-16.379, 9.372-22.627l 128-128.001C 245.869,60.876, 266.131,60.876, 278.627,73.372z" data-tags="arrow-down, download, bottom" />
<glyph unicode="&#xe00c;" d="M 256,480C 397.385,480, 512,365.385, 512,224s -114.615-256, -256-256s -256,114.615, -256,256S 114.615,480, 256,480z M 256,16 c 114.875,0 208,93.125 208,208S 370.875,432, 256,432s -208-93.125, -208-208S 141.125,16, 256,16zM 105.372,246.627l 128.001,128c 12.496,12.497 32.757,12.497 45.254,0c 12.497-12.497 12.497-32.758,0-45.255L 205.255,256 L 384,256 c 17.673,0 32-14.327 32-32c0-17.673, -14.327-32, -32-32l-178.745,0 l 73.373-73.372c 12.497-12.497 12.497-32.759,0-45.256 C 272.379,67.124, 264.189,64, 256,64s -16.379,3.124, -22.627,9.372l -128.001,128C 92.876,213.869, 92.876,234.131, 105.372,246.627z" data-tags="arrow-left, left, previous" />
<glyph unicode="&#xe00f;" d="M 384,160L 256,288L 128,160 z" data-tags="arrow-up, upload, top" />
<glyph unicode="&#xe010;" d="M 192.001,96L 320.001,224L 192.001,352 z" data-tags="arrow-right, right, next" />
<glyph unicode="&#xe011;" d="M 128,288L 256,160L 384,288 z" data-tags="arrow-down, download, bottom" />
<glyph unicode="&#xe012;" d="M 320.001,352L 192.001,224L 320.001,95.999 z" data-tags="arrow-left, left, previous" />
<glyph unicode="&#xe00e;" d="M 384,256L 256,384L 128,256 zM 128,160L 256,32L 384,160 z" data-tags="menu, arrow, options, select" />
<glyph unicode="&#xe201;" d="M 160,0L 352,0L 352-32L 160-32zM 160,64L 352,64L 352,32L 160,32zM 160,128L 352,128L 352,96L 160,96zM 256,480L 480,256L 352,256L 352,160L 160,160L 160,256L 32,256 z" data-tags="arrow-up, upload, top" />
<glyph unicode="&#xe202;" d="M0,320L 32,320L 32,128L0,128zM 64,320L 96,320L 96,128L 64,128zM 128,320L 160,320L 160,128L 128,128zM 512,224L 288,448L 288,320L 192,320L 192,128L 288,128L 288,0 z" data-tags="arrow-right, right, next" />
<glyph unicode="&#xe203;" d="M 160,480L 352,480L 352,448L 160,448zM 160,416L 352,416L 352,384L 160,384zM 160,352L 352,352L 352,320L 160,320zM 256-32L 480,192L 352,192L 352,288L 160,288L 160,192L 32,192 z" data-tags="arrow-down, download, bottom" />
<glyph unicode="&#xe204;" d="M 480,320L 512,320L 512,128L 480,128zM 416,320L 448,320L 448,128L 416,128zM 352,320L 384,320L 384,128L 352,128zM0,224L 224,448L 224,320L 320,320L 320,128L 224,128L 224,0 z" data-tags="arrow-left, left, previous" />
<glyph unicode="&#x27;" d="M 288,355.814L 288,480 l 192-192L 288,96L 288,222.912 C 64.625,228.153, 74.206,71.016, 131.070-32 C-9.286,119.707, 20.52,362.785, 288,355.814z" data-tags="redo, arrow, right" />
<glyph unicode="&#x28;" d="M 380.931-32C 437.794,71.016, 447.375,228.153, 224,222.912L 224,96 L 32,288L 224,480l0-124.186 C 491.481,362.785, 521.285,119.707, 380.931-32z" data-tags="undo, arrow, left" />
<glyph unicode="&#xe205;" d="M 131.070,480C 74.206,376.984, 64.625,219.848, 288,225.088L 288,352 l 192-192L 288-32L 288,92.186 C 20.52,85.215-9.286,328.293, 131.070,480z" data-tags="forward, arrow, right" />
<glyph unicode="&#xe206;" d="M 224,92.186L 224-32 L 32,160l 192,192l0-126.912 C 447.375,219.848, 437.794,376.984, 380.931,480 C 521.286,328.293, 491.481,85.215, 224,92.186z" data-tags="reply, arrow, left" />
<glyph unicode="&#x6c;" d="M0,192c0-76.462, 33.524-145.092, 86.675-192l 42.333,48C 89.145,83.182, 64,134.652, 64,192c0,106.038, 85.965,192, 192,192 c 53.021,0, 101.019-21.493, 135.765-56.239L 320,256l 192,0 L 512,448 l-74.985-74.989C 390.688,419.34, 326.693,448, 256,448 C 114.615,448,0,333.385,0,192z" data-tags="redo, arrow, right" />
<glyph unicode="&#xe207;" d="M 256,448c-70.692,0-134.688-28.66-181.016-74.989L0,448l0-192 l 192,0 l-71.766,71.761C 154.982,362.507, 202.98,384, 256,384 c 106.034,0, 192-85.962, 192-192c0-57.348-25.146-108.818-65.009-144l 42.333-48C 478.475,46.908, 512,115.538, 512,192 C 512,333.385, 397.385,448, 256,448z" data-tags="undo, arrow, left" />
<glyph unicode="&#x7a;" d="M 512,224L 384,320L 384,256L 288,256L 288,352L 352,352L 256,480L 160,352L 224,352L 224,256L 128,256L 128,320L0,224L 128,128L 128,192L 224,192L 224,96L 160,96L 256-32L 352,96L 288,96L 288,192L 384,192L 384,128 z" data-tags="move, drag, arrows" />
<glyph unicode="&#x66;" d="M 512,480 L 512,272 L 432,352 L 336,256 L 288,304 L 384,400 L 304,480 ZM 224,144 L 128,48 L 208-32 L 0-32 L 0,176 L 80,96 L 176,192 Z" data-tags="expand, enlarge, maximize, fullscreen" />
<glyph unicode="&#x67;" d="M 224,192 L 224-16 L 144,64 L 48-32 L 0,16 L 96,112 L 16,192 ZM 512,432 L 416,336 L 496,256 L 288,256 L 288,464 L 368,384 L 464,480 Z" data-tags="contract, minimize, shrink, collapse" />
<glyph unicode="&#x68;" d="M 512,480 L 512,288 L 442.87,357.13 L 336.87,251.13 L 283.13,304.87 L 389.13,410.87 L 320,480 ZM 122.87,410.87 L 228.87,304.87 L 175.13,251.13 L 69.13,357.13 L 0,288 L 0,480 L 192,480 ZM 442.87,90.87 L 512,160 L 512-32 L 320-32 L 389.13,37.13 L 283.13,143.13 L 336.87,196.87 ZM 228.87,143.13 L 122.87,37.13 L 192-32 L 0-32 L 0,160 L 69.13,90.87 L 175.13,196.87 Z" data-tags="expand, enlarge, maximize, fullscreen" />
<glyph unicode="&#x69;" d="M 32,192 L 224,192 L 224,0 L 154.87,69.13 L 53.87-31.87 L 0.13,21.87 L 101.13,122.87 ZM 410.87,122.87 L 511.87,21.87 L 458.13-31.87 L 357.13,69.13 L 288,0 L 288,192 L 480,192 ZM 480,256 L 288,256 L 288,448 L 357.13,378.87 L 458.13,479.87 L 511.87,426.13 L 410.87,325.13 ZM 154.87,378.87 L 224,448 L 224,256 L 32,256 L 101.13,325.13 L 0.13,426.13 L 53.87,479.87 Z" data-tags="contract, minimize, shrink, collapse" />
<glyph unicode="&#xe208;" d="M 96,416L 416,224L 96,32 z" data-tags="play, media control, audio" />
<glyph unicode="&#xe209;" d="M 64,416L 224,416L 224,32L 64,32zM 288,416L 448,416L 448,32L 288,32z" data-tags="pause, media control, audio" />
<glyph unicode="&#xe210;" d="M 64,416L 448,416L 448,32L 64,32z" data-tags="stop, media control, audio, square" />
<glyph unicode="&#x7c;" d="M 288,400 L 288,240 L 448,400 L 448,48 L 288,208 L 288,48 L 112,224 Z" data-tags="backward, media control, audio" />
<glyph unicode="&#x7b;" d="M 256,48 L 256,208 L 96,48 L 96,400 L 256,240 L 256,400 L 432,224 Z" data-tags="forward, media control, audio" />
<glyph unicode="&#x7d;" d="M 64,32 L 64,416 L 128,416 L 128,240 L 288,400 L 288,240 L 448,400 L 448,48 L 288,208 L 288,48 L 128,208 L 128,32 Z" data-tags="first, media control, audio" />
<glyph unicode="&#xe000;" d="M 448,416 L 448,32 L 384,32 L 384,208 L 224,48 L 224,208 L 64,48 L 64,400 L 224,240 L 224,400 L 384,240 L 384,416 Z" data-tags="last, media control, audio" />
<glyph unicode="&#xe00d;" d="M 256,480C 114.615,480,0,365.385,0,224s 114.615-256, 256-256s 256,114.615, 256,256S 397.385,480, 256,480z M 256,16 c-114.875,0-208,93.125-208,208S 141.125,432, 256,432s 208-93.125, 208-208S 370.875,16, 256,16zM 192,336L 384,224L 192,112 z" data-tags="play, media control, audio" />
<glyph unicode="&#xe211;" d="M 256,480C 114.615,480,0,365.385,0,224s 114.615-256, 256-256s 256,114.615, 256,256S 397.385,480, 256,480z M 256,16 c-114.875,0-208,93.125-208,208S 141.125,432, 256,432s 208-93.125, 208-208S 370.875,16, 256,16zM 160,320L 224,320L 224,128L 160,128zM 288,320L 352,320L 352,128L 288,128z" data-tags="pause, media control, audio" />
<glyph unicode="&#xe212;" d="M 256,480C 114.615,480,0,365.385,0,224s 114.615-256, 256-256s 256,114.615, 256,256S 397.385,480, 256,480z M 256,16 c-114.875,0-208,93.125-208,208S 141.125,432, 256,432s 208-93.125, 208-208S 370.875,16, 256,16zM 160,320L 352,320L 352,128L 160,128z" data-tags="stop, media control, audio" />
<glyph unicode="&#xe213;" d="M 256-32c 141.385,0, 256,114.615, 256,256S 397.385,480, 256,480S0,365.385,0,224S 114.615-32, 256-32z M 256,432 c 114.875,0, 208-93.125, 208-208s-93.125-208-208-208S 48,109.125, 48,224S 141.125,432, 256,432zM 352,144L 240,224L 352,304 zM 224,144L 112,224L 224,304 z" data-tags="backward, media control, audio" />
<glyph unicode="&#xe214;" d="M 256,480C 114.615,480,0,365.385,0,224s 114.615-256, 256-256s 256,114.615, 256,256S 397.385,480, 256,480z M 256,16 c-114.875,0-208,93.125-208,208S 141.125,432, 256,432s 208-93.125, 208-208S 370.875,16, 256,16zM 160,304L 272,224L 160,144 zM 288,304L 400,224L 288,144 z" data-tags="forward, media control, audio" />
<glyph unicode="&#xe001;" d="M 437.011,405.010C 390.685,451.338, 326.693,480, 256,480C 146.256,480, 52.655,410.936, 16.251,313.906l 59.938-22.477 C 103.491,364.202, 173.692,416, 256,416c 53.020,0, 101.010-21.5, 135.753-56.247L 320,288l 192,0 L 512,480 L 437.011,405.010zM 256,32c-53.020,0-101.013,21.496-135.756,56.244L 192,160L0,160 l0-192 l 74.997,74.997C 121.32-3.334, 185.306-32, 256-32 c 109.745,0, 203.346,69.064, 239.75,166.094l-59.938,22.477C 408.51,83.798, 338.309,32, 256,32z" data-tags="loop, repeat, reload, refresh, update, upgrade, synchronize, media control, arrows" />
<glyph unicode="&#xe002;" d="M 512,352L 384,480l0-96 c-65.386,0-115.376-15.604-152.825-47.704c-2.625-2.25-5.142-4.55-7.581-6.887 c 13.76-19.082, 24.358-38.758, 33.886-57.545C 281.641,301.065, 316.507,320, 384,320l0-96 l0,0 l0-96 c-108.223,0-132.563,48.68-163.378,110.311 c-17.153,34.306-34.89,69.78-67.796,97.985C 115.376,368.396, 65.386,384,0,384l0-64 c 108.223,0, 132.563-48.68, 163.378-110.311 c 17.153-34.306, 34.89-69.78, 67.796-97.985C 268.624,79.604, 318.615,64, 384,64l0-96 l 128,128L 384,224L 512,352zM0,128l0-64 c 65.386,0, 115.375,15.604, 152.825,47.704c 2.625,2.249, 5.142,4.55, 7.581,6.888 c-13.76,19.081-24.359,38.758-33.886,57.545C 102.36,146.936, 67.494,128,0,128z" data-tags="shuffle, media control, random" />
<glyph unicode="&#x53;" d="M 496.131,44.302L 374.855,147.449c-12.537,11.283-25.945,16.463-36.776,15.963C 366.707,196.946, 384,240.451, 384,288 C 384,394.039, 298.039,480, 192,480C 85.962,480,0,394.039,0,288c0-106.039, 85.961-192, 192-192c 47.549,0, 91.054,17.293, 124.588,45.922 c-0.5-10.831, 4.68-24.239, 15.963-36.776l 103.147-121.276c 17.661-19.623, 46.511-21.277, 64.11-3.678S 515.754,26.641, 496.131,44.302z M 192,160c-70.692,0-128,57.308-128,128S 121.308,416, 192,416s 128-57.308, 128-128S 262.693,160, 192,160z" data-tags="search, magnifier, lookup, find" />
<glyph unicode="&#x64;" d="M 192,384L 160,384L 160,320L 96,320L 96,288L 160,288L 160,224L 192,224L 192,288L 256,288L 256,320L 192,320 zM 318.771,201.076C 339.674,230.021, 352,265.568, 352,304C 352,401.202, 273.202,480, 176,480S0,401.202,0,304s 78.798-176, 176-176 c 38.432,0, 73.979,12.326, 102.924,33.229L 448-32l 64,64L 318.771,201.076z M 176,176c-70.692,0-128,57.308-128,128S 105.308,432, 176,432 s 128-57.308, 128-128S 246.693,176, 176,176z" data-tags="zoom in, enlarge, scale" />
<glyph unicode="&#x65;" d="M 96,320L 256,320L 256,288L 96,288zM 318.771,201.076C 339.674,230.021, 352,265.568, 352,304C 352,401.202, 273.202,480, 176,480S0,401.202,0,304s 78.798-176, 176-176 c 38.432,0, 73.979,12.326, 102.924,33.229L 448-32l 64,64L 318.771,201.076z M 176,176c-70.692,0-128,57.308-128,128S 105.308,432, 176,432 s 128-57.308, 128-128S 246.693,176, 176,176z" data-tags="zoom out, smaller, scale, reduce" />
<glyph unicode="&#x2b;" d="M 424,312 L 208,96 L 128,96 L 128,176 L 344,392 ZM 451,339 L 371,419 L 399.029,447.029 C 408.363,456.363 423.636,456.363 432.97,447.029 L 479.029,400.97 C 488.363,391.636 488.363,376.363 479.029,367.029 L 451,339 ZM 384,198.209L 384,32 L 64,32 L 64,352 l 176,0 l 64,64L 48,416 C 21.6,416,0,394.4,0,368l0-352 c0-26.4, 21.6-48, 48-48l 352,0 c 26.4,0, 48,21.6, 48,48L 448,255.681 L 384,198.209z" data-tags="pencil, write, edit, blog, note" />
<glyph unicode="&#x2c;" d="M 432,480 C 476.182,480 512,444.183 512,400 C 512,381.99 506.045,365.371 496,352 L 464,320 L 352,432 L 384,464 C 397.371,474.045 413.989,480 432,480 ZM 32,112L0-32l 144,32l 296,296L 328,408L 32,112z M 357.789,298.211l-224-224l-27.578,27.578l 224,224L 357.789,298.211z" data-tags="pencil, write, edit, blog, note" />
<glyph unicode="&#x3b;" d="M 160.061,160C 96.036,160, 117.88,46.86,0,21.363c 32.011-21.324, 125.898-39.027, 192.072,10.668 C 249.298,75.006, 224.085,160, 160.061,160zM 505.965,441.965c-32.009,32.007-110.472-72.027-171.617-107.603c-60.98-37.464-144.033-112.027-96.021-160.037 c 48.010-48.013, 122.571,35.040, 160.036,96.022C 433.938,331.495, 537.973,409.958, 505.965,441.965z" data-tags="brush, art, paint" />
<glyph unicode="&#x5d;" d="M 496,288L 320,288 L 320,464 c0,8.836-7.164,16-16,16l-96,0 c-8.836,0-16-7.164-16-16l0-176 L 16,288 c-8.836,0-16-7.164-16-16l0-96 c0-8.836, 7.164-16, 16-16l 176,0 l0-176 c0-8.836, 7.164-16, 16-16l 96,0 c 8.836,0, 16,7.164, 16,16L 320,160 l 176,0 c 8.836,0, 16,7.164, 16,16l0,96 C 512,280.836, 504.836,288, 496,288z" data-tags="plus, add, sum" />
<glyph unicode="&#x5e;" d="M0,272l0-96 c0-8.836, 7.164-16, 16-16l 480,0 c 8.836,0, 16,7.164, 16,16l0,96 c0,8.836-7.164,16-16,16L 16,288 C 7.164,288,0,280.836,0,272z" data-tags="minus, minimize, subtract" />
<glyph unicode="&#x49;" d="M 507.331,68.67c-0.002,0.002-0.004,0.004-0.006,0.005L 352.003,224l 155.322,155.325c 0.002,0.002, 0.004,0.003, 0.006,0.005 c 1.672,1.673, 2.881,3.627, 3.656,5.708c 2.123,5.688, 0.912,12.341-3.662,16.915L 433.952,475.326c-4.574,4.573-11.225,5.783-16.914,3.66 c-2.080-0.775-4.035-1.984-5.709-3.655c0-0.002-0.002-0.003-0.004-0.005L 256.001,320L 100.677,475.325 c-0.002,0.002-0.003,0.003-0.005,0.005c-1.673,1.671-3.627,2.88-5.707,3.655c-5.69,2.124-12.341,0.913-16.915-3.66L 4.676,401.951 c-4.574-4.574-5.784-11.226-3.661-16.914c 0.776-2.080, 1.985-4.036, 3.656-5.708c 0.002-0.001, 0.003-0.003, 0.005-0.005L 160.001,224 L 4.676,68.674c-0.001-0.002-0.003-0.003-0.004-0.005c-1.671-1.673-2.88-3.627-3.657-5.707c-2.124-5.688-0.913-12.341, 3.661-16.915 l 73.374-73.373c 4.575-4.574, 11.226-5.784, 16.915-3.661c 2.080,0.776, 4.035,1.985, 5.708,3.656c 0.001,0.002, 0.003,0.003, 0.005,0.005 l 155.324,155.325l 155.324-155.325c 0.002-0.001, 0.004-0.003, 0.006-0.004c 1.674-1.672, 3.627-2.881, 5.707-3.657 c 5.689-2.123, 12.342-0.913, 16.914,3.661l 73.373,73.374c 4.574,4.574, 5.785,11.227, 3.662,16.915 C 510.212,65.043, 509.003,66.997, 507.331,68.67z" data-tags="close, cancel, quit, remove, cross" />
<glyph unicode="&#x47;" d="M 432,416L 192,176L 80,288L0,208L 192,16L 512,336 z" data-tags="checkmark, tick, correct, accept, ok" />
<glyph unicode="&#x2a;" d="M 256,480C 114.615,480,0,365.385,0,224s 114.615-256, 256-256s 256,114.615, 256,256S 397.385,480, 256,480z M 288,192l0-128 l-64,0 L 224,192 L 96,192 l0,64 l 128,0 L 224,384 l 64,0 l0-128 l 128,0 l0-64 L 288,192 z" data-tags="plus-circle, plus, add, sum" />
<glyph unicode="&#xe215;" d="M 256,480C 114.615,480,0,365.385,0,224s 114.615-256, 256-256s 256,114.615, 256,256S 397.385,480, 256,480z M 256,32 c-106.039,0-192,85.961-192,192c0,106.039, 85.961,192, 192,192c 106.039,0, 192-85.961, 192-192C 448,117.961, 362.039,32, 256,32zM 384,192 L 288,192 L 288,96 L 224,96 L 224,192 L 128,192 L 128,256 L 224,256 L 224,352 L 288,352 L 288,256 L 384,256 Z" data-tags="plus-circle, plus, add, sum" />
<glyph unicode="&#x4b;" d="M 256,480C 114.615,480,0,365.385,0,224s 114.615-256, 256-256s 256,114.615, 256,256S 397.385,480, 256,480z M 416,192L 96,192 l0,64 l 320,0 L 416,192 z" data-tags="minus-circle, minus, remove, delete, subtract" />
<glyph unicode="&#xe216;" d="M 256,480C 114.615,480,0,365.385,0,224s 114.615-256, 256-256s 256,114.615, 256,256S 397.385,480, 256,480z M 256,32 c-106.039,0-192,85.961-192,192c0,106.039, 85.961,192, 192,192c 106.039,0, 192-85.961, 192-192C 448,117.961, 362.039,32, 256,32zM 128,256L 384,256L 384,192L 128,192z" data-tags="minus-circle, minus, remove, delete, subtract" />
<glyph unicode="&#x4a;" d="M 256,480C 114.615,480,0,365.385,0,224s 114.615-256, 256-256s 256,114.615, 256,256S 397.385,480, 256,480z M 384,306.745L 301.256,224 L 384,141.256L 384,96 l-45.256,0 L 256,178.744L 173.255,96L 128,96 l0,45.256 L 210.745,224L 128,306.745L 128,352 l 45.255,0 L 256,269.255L 338.744,352L 384,352 L 384,306.745 z" data-tags="cancel-circle, close, remove, delete" />
<glyph unicode="&#xe217;" d="M 256,480C 114.615,480,0,365.385,0,224s 114.615-256, 256-256s 256,114.615, 256,256S 397.385,480, 256,480z M 256,32 c-106.039,0-192,85.961-192,192c0,106.039, 85.961,192, 192,192c 106.039,0, 192-85.961, 192-192C 448,117.961, 362.039,32, 256,32zM 352,173.256 L 352,128 L 306.744,128 L 256,178.744 L 205.255,128 L 160,128 L 160,173.256 L 210.745,224 L 160,274.745 L 160,320 L 205.255,320 L 256,269.255 L 306.744,320 L 352,320 L 352,274.745 L 301.256,224 Z" data-tags="cancel-circle, close, remove, delete" />
<glyph unicode="&#xe218;" d="M 256,480C 114.615,480,0,365.385,0,224s 114.615-256, 256-256s 256,114.615, 256,256S 397.385,480, 256,480z M 208,64L 102,202l 47,49l 59-75 l 185,151l 23-23L 208,64z" data-tags="checkmark-circle, tick, correct" />
<glyph unicode="&#xe219;" d="M 256,480C 114.615,480,0,365.385,0,224s 114.615-256, 256-256s 256,114.615, 256,256S 397.385,480, 256,480z M 256,32 c-106.039,0-192,85.961-192,192c0,106.039, 85.961,192, 192,192c 106.039,0, 192-85.961, 192-192C 448,117.961, 362.039,32, 256,32zM 208,64L 102,202L 149,251L 208,176L 393,327L 416,304 z" data-tags="checkmark-circle, tick, correct" />
<glyph unicode="&#xe220;" d="M 256,480C 114.615,480,0,365.385,0,224s 114.615-256, 256-256s 256,114.615, 256,256S 397.385,480, 256,480z M 224,384l 64,0 l0-64 l-64,0 L 224,384 z M 320,64L 192,64 l0,32 l 32,0 L 224,224 l-32,0 l0,32 l 96,0 l0-160 l 32,0 L 320,64 z" data-tags="info, information" />
<glyph unicode="&#xe221;" d="M 256,480C 114.615,480,0,365.385,0,224s 114.615-256, 256-256s 256,114.615, 256,256S 397.385,480, 256,480z M 256,16 c-114.875,0-208,93.125-208,208S 141.125,432, 256,432s 208-93.125, 208-208S 370.875,16, 256,16zM 224,352L 288,352L 288,288L 224,288zM 320,96L 192,96L 192,128L 224,128L 224,224L 192,224L 192,256L 288,256L 288,128L 320,128 z" data-tags="info, information" />
<glyph unicode="&#x45;" d="M 256,480C 114.615,480,0,365.385,0,224s 114.613-256, 256-256c 141.385,0, 256,114.615, 256,256S 397.385,480, 256,480z M 288,64l-64,0 l0,64 l 64,0 L 288,64 z M 384,256c0-35.29-28.71-64-64-64l-31.942,0 c-0.020-0.017-0.041-0.038-0.058-0.058L 288,160 l-64,0 l0,32 c0,35.29, 28.71,64, 64,64l 31.942,0 c 0.020,0.017, 0.041,0.038, 0.058,0.057l0,63.885 c-0.017,0.020-0.037,0.041-0.058,0.058L 160,320 L 160,384 l 160,0 c 35.29,0, 64-28.71, 64-64L 384,256 z" data-tags="question, help, support" />
<glyph unicode="&#xe222;" d="M 320,384 C 355.29,384 384,355.29 384,320 L 384,256 C 384,220.71 355.29,192 320,192 L 288.059,192 C 288.038,191.982 288.018,191.962 288,191.941 L 288,160 L 224,160 L 224,192 C 224,227.29 252.71,256 288,256 L 319.942,256 C 319.962,256.016 319.983,256.037 320,256.057 L 320,319.942 C 319.983,319.962 319.963,319.983 319.942,320 L 160,320 L 160,384 L 320,384 ZM 224,128L 288,128L 288,64L 224,64zM 256,432 C 200.441,432 148.208,410.364 108.922,371.078 C 69.636,331.792 48,279.559 48,224 C 48,168.441 69.636,116.208 108.922,76.922 C 148.208,37.636 200.441,16 256,16 C 311.559,16 363.792,37.636 403.078,76.922 C 442.364,116.208 464,168.441 464,224 C 464,279.559 442.364,331.792 403.078,371.078 C 363.792,410.364 311.559,432 256,432 Z M 256,480 L 256,480 C 397.385,480 512,365.385 512,224 C 512,82.615 397.385-32 256-32 C 114.615-32 0,82.615 0,224 C 0,365.385 114.615,480 256,480 Z" data-tags="question, help, support" />
<glyph unicode="&#xe223;" d="M 256,480C 114.615,480,0,365.385,0,224s 114.615-256, 256-256s 256,114.615, 256,256S 397.385,480, 256,480z M 288,64l-64,0 l0,64 l 64,0 L 288,64 z M 288,192l-64,0 L 224,384 l 64,0 L 288,192 z" data-tags="notification, warning, notice, note, exclamation" />
<glyph unicode="&#xe224;" d="M 256,432 C 200.441,432 148.208,410.364 108.922,371.078 C 69.636,331.792 48,279.559 48,224 C 48,168.441 69.636,116.208 108.922,76.922 C 148.208,37.636 200.441,16 256,16 C 311.559,16 363.792,37.636 403.078,76.922 C 442.364,116.208 464,168.441 464,224 C 464,279.559 442.364,331.792 403.078,371.078 C 363.792,410.364 311.559,432 256,432 Z M 256,480 L 256,480 C 397.385,480 512,365.385 512,224 C 512,82.615 397.385-32 256-32 C 114.615-32 0,82.615 0,224 C 0,365.385 114.615,480 256,480 ZM 224,128L 288,128L 288,64L 224,64zM 224,384L 288,384L 288,192L 224,192z" data-tags="notification, warning, notice, note, exclamation" />
<glyph unicode="&#x48;" d="M 504.978,22.12L 286.441,457.676C 278.070,472.559, 267.035,480, 256,480s-22.070-7.441-30.442-22.324L 7.021,22.12 C-9.722-7.646, 4.521-32, 38.673-32l 434.654,0 C 507.478-32, 521.723-7.646, 504.978,22.12z M 256,32c-17.673,0-32,14.327-32,32 c0,17.674, 14.327,32, 32,32c 17.674,0, 32-14.326, 32-32C 288,46.327, 273.674,32, 256,32z M 278,128l-44,0 l-10,128 c0,17.673, 14.327,32, 32,32s 32-14.327, 32-32L 278,128z" data-tags="warning, sign" />
<glyph unicode="&#xe225;" d="M 256,400.638 L 83.583,32 L 428.417,32 L 256,400.638 Z M 256,480 L 256,480 C 267.035,480 278.070,472.559 286.442,457.676 L 504.978,22.12 C 521.723-7.646 507.478-32 473.327-32 L 38.673-32 C 4.521-32 -9.722-7.646 7.021,22.12 L 225.558,457.676 C 233.93,472.559 244.965,480 256,480 ZM 224,96A32,32 3060 1 0 288,96A32,32 3060 1 0 224,96zM 256,288 C 273.673,288 288,273.673 288,256 L 278,160 L 234,160 L 224,256 C 224,273.673 238.327,288 256,288 Z" data-tags="warning, sign" />
<glyph unicode="&#x3d;" d="M0,480l0-512 l 512,0 L 512,480 L0,480 z M 480,0L 32,0 L 32,448 l 448,0 L 480,0 z" data-tags="checkbox-unchecked, unchecked, square" />
<glyph unicode="&#x3e;" d="M0,480l0-512 l 512,0 L 512,480 L0,480 z M 480,0L 32,0 L 32,448 l 448,0 L 480,0 z M 384,368L 224,208l-96,96l-64-64l 160-160l 224,224L 384,368z" data-tags="checkbox-checked, tick, checked, selected" />
<glyph unicode="&#x3f;" d="M0,480l0-512 l 512,0 L 512,480 L0,480 z M 480,0L 32,0 L 32,448 l 448,0 L 480,0 zM 128,352L 384,352L 384,96L 128,96z" data-tags="checkbox-partial, partial" />
<glyph unicode="&#xe226;" d="M0,480L 512,480L 512-32L0-32z" data-tags="square" />
<glyph unicode="&#xe227;" d="M 256,480C 114.615,480,0,365.385,0,224s 114.615-256, 256-256s 256,114.615, 256,256S 397.385,480, 256,480z M 256,32 c-106.039,0-192,85.961-192,192c0,106.039, 85.961,192, 192,192c 106.039,0, 192-85.961, 192-192C 448,117.961, 362.039,32, 256,32z" data-tags="radio-unchecked, circle" />
<glyph unicode="&#xe228;" d="M 256,480C 114.615,480,0,365.385,0,224s 114.615-256, 256-256s 256,114.615, 256,256S 397.385,480, 256,480z M 256,32 c-106.039,0-192,85.961-192,192c0,106.039, 85.961,192, 192,192c 106.039,0, 192-85.961, 192-192C 448,117.961, 362.039,32, 256,32zM 160,224A96,96 13140 1 0 352,224A96,96 13140 1 0 160,224z" data-tags="radio-checked" />
<glyph unicode="&#xe229;" d="M0,224A256,256 5220 1 0 512,224A256,256 5220 1 0 0,224z" data-tags="circle" />
<glyph unicode="&#xe230;" d="M 224,82.745L 121.373,201.372L 150.627,230.627L 224,173.255L 361.372,294.627L 390.628,265.373 zM 415.886,416c 0.039-0.033, 0.081-0.075, 0.114-0.115l0-383.771 c-0.033-0.039-0.075-0.081-0.114-0.114L 96.114,32 c-0.040,0.033-0.081,0.075-0.114,0.114L 96,415.886 c 0.033,0.040, 0.075,0.081, 0.115,0.114L 32,416 l0-384 c0-35.2, 28.8-64, 64-64l 320,0 c 35.2,0, 64,28.8, 64,64L 480,416 L 415.886,416 z M 320,416L 320,448 c0,17.673-14.327,32-32,32l-64,0 c-17.673,0-32-14.327-32-32l0-32 l-64,0 l0-64 l 256,0 L 384,416 L 320,416 z M 288,416l-64,0 L 224,448 l 64,0 L 288,416 z" data-tags="signup, checkmark, board, agreement, register" />
<glyph unicode="&#x58;" d="M0,480L 224,480L 224,256L0,256zM 288,480L 512,480L 512,256L 288,256zM0,192L 224,192L 224-32L0-32zM 288,192L 512,192L 512-32L 288-32z" data-tags="grid, icons, apps, squares" />
<glyph unicode="&#x59;" d="M0,480L 128,480L 128,352L0,352zM 192,480L 320,480L 320,352L 192,352zM 384,480L 512,480L 512,352L 384,352zM0,288L 128,288L 128,160L0,160zM 192,288L 320,288L 320,160L 192,160zM 384,288L 512,288L 512,160L 384,160zM0,96L 128,96L 128-32L0-32zM 192,96L 320,96L 320-32L 192-32zM 384,96L 512,96L 512-32L 384-32z" data-tags="grid, icons, apps" />
<glyph unicode="&#x5a;" d="M 192,448L 320,448L 320,320L 192,320zM 192,288L 320,288L 320,160L 192,160zM 192,128L 320,128L 320,0L 192,0z" data-tags="menu, dots, more" />
<glyph unicode="&#x31;" d="M0,480L 128,480L 128,352L0,352zM 192,480L 512,480L 512,352L 192,352zM0,288L 128,288L 128,160L0,160zM 192,288L 512,288L 512,160L 192,160zM0,96L 128,96L 128-32L0-32zM 192,96L 512,96L 512-32L 192-32z" data-tags="list, bullet, ul, menu" />
<glyph unicode="&#xe231;" d="M0,480L 128,480L 128,352L0,352zM 192,448L 512,448L 512,384L 192,384zM0,288L 128,288L 128,160L0,160zM 192,256L 512,256L 512,192L 192,192zM0,96L 128,96L 128-32L0-32zM 192,64L 512,64L 512,0L 192,0z" data-tags="list, bullet, ul, todo, menu" />
<glyph unicode="&#xe232;" d="M 448,96L 64,96 c-35.2,0-64-28.8-64-64s 28.8-64, 64-64l 384,0 c 35.2,0, 64,28.8, 64,64S 483.2,96, 448,96zM 448,288L 64,288 c-35.2,0-64-28.8-64-64s 28.8-64, 64-64l 384,0 c 35.2,0, 64,28.8, 64,64S 483.2,288, 448,288zM 64,352l 384,0 c 35.2,0, 64,28.8, 64,64S 483.2,480, 448,480L 64,480 C 28.8,480,0,451.2,0,416S 28.8,352, 64,352z" data-tags="menu, list, items, lines, options" />
<glyph unicode="&#x2d;" d="M 416,0L 512,256L 96,256L0,0 zM 64,288 L 0,0 L 0,416 L 144,416 L 208,352 L 416,352 L 416,288 Z" data-tags="folder-open, directory, category, browse" />
<glyph unicode="&#x2e;" d="M 224,416L 288,352L 512,352L 512,0L0,0L0,416 z" data-tags="folder, directory, category, browse" />
<glyph unicode="&#xe234;" d="M 288,352l-64,64L0,416 l0-416 l 512,0 L 512,352 L 288,352 z M 352,128l-64,0 l0-64 l-64,0 l0,64 l-64,0 l0,64 l 64,0 l0,64 l 64,0 l0-64 l 64,0 L 352,128 z" data-tags="folder-plus, plus, add, directory, category, browse" />
<glyph unicode="&#xe235;" d="M 288,352l-64,64L0,416 l0-416 l 512,0 L 512,352 L 288,352 z M 352,128L 160,128 l0,64 l 192,0 L 352,128 z" data-tags="folder-minus, minus, remove, delete, directory, category, browse" />
<glyph unicode="&#xe236;" d="M 210.745,384l 54.628-54.627l 9.372-9.373L 288,320 l 192,0 l0-288 L 32,32 L 32,384 L 210.745,384  M 224,416L0,416 l0-416 l 512,0 L 512,352 L 288,352 L 224,416L 224,416z" data-tags="folder, directory, category, browse" />
<glyph unicode="&#xe237;" d="M 288,352l-64,64L0,416 l0-416 l 512,0 L 512,352 L 288,352 z M 480,32L 32,32 L 32,384 l 178.745,0 l 54.628-54.627l 9.372-9.373L 288,320 l 192,0 L 480,32 zM 288,256L 224,256L 224,192L 160,192L 160,128L 224,128L 224,64L 288,64L 288,128L 352,128L 352,192L 288,192 z" data-tags="folder-plus, plus, add, directory, category, browse" />
<glyph unicode="&#xe238;" d="M 288,352l-64,64L0,416 l0-416 l 512,0 L 512,352 L 288,352 z M 480,32L 32,32 L 32,384 l 178.745,0 l 54.628-54.627l 9.372-9.373L 288,320 l 192,0 L 480,32 zM 160,192L 352,192L 352,128L 160,128z" data-tags="folder-remove, remove, directory, category" />
<glyph unicode="&#xe016;" d="M 352,480L 32,480 l0-512 l 448,0 L 480,352 L 352,480z M 448,0L 64,0 L 64,448 l 288,0 l0-96 l 96,0 L 448,0 z" data-tags="file, paper, page, new, empty, blank, document" />
<glyph unicode="&#xe239;" d="M 352,480L 32,480 l0-512 l 448,0 L 480,352 L 352,480z M 448,0L 64,0 L 64,448 l 288,0 l0-96 l 96,0 L 448,0 zM 128,96L 384,96L 384,64L 128,64zM 128,160L 384,160L 384,128L 128,128zM 128,224L 384,224L 384,192L 128,192z" data-tags="file, list, paper, page, document" />
<glyph unicode="&#x29;" d="M 448,96L 448,160L 384,160L 384,96L 320,96L 320,32L 384,32L 384-32L 448-32L 448,32L 512,32L 512,96 zM 32,448L 320,448L 320,352L 416,352L 416,192L 448,192L 448,352L 320,480L0,480L0-32L 288-32L 288,0L 32,0 z" data-tags="file-plus, plus, new, page, document, paper" />
<glyph unicode="&#xe017;" d="M 320,96L 512,96L 512,32L 320,32zM 32,448L 320,448L 320,352L 416,352L 416,192L 448,192L 448,352L 320,480L0,480L0-32L 288-32L 288,0L 32,0 z" data-tags="file-minus, minus, remove, delete, page, document, paper" />
<glyph unicode="&#xe240;" d="M 352-32L 256,80L 296.75,120.75L 352,65.125L 480,192L 512,160 zM 32,448l 288,0 l0-96 l 96,0 l0-160 l 32,0 L 448,352 L 320,480L0,480 l0-512 l 288,0 l0,32 L 32,0 L 32,448 z" data-tags="file-check, checkmark, correct, tick, page, document, paper" />
<glyph unicode="&#xe241;" d="M 32,448l 288,0 l0-96 l 96,0 l0-160 l 32,0 L 448,352 L 320,480L0,480 l0-512 l 288,0 l0,32 L 32,0 L 32,448 zM 461.256,64L 512,114.744L 512,160L 466.744,160L 416,109.256L 365.256,160L 320,160L 320,114.744L 370.744,64L 320,13.256L 320-32L 365.256-32L 416,18.744L 466.744-32L 512-32L 512,13.256 z" data-tags="file-remove, delete, remove, cancel, close, document, page, paper" />
<glyph unicode="&#xe018;" d="M 416,352l-96,0 L 320,384 L 224,480L0,480 l0-384 l 192,0 l0-128 l 320,0 L 512,256 L 416,352z M 416,306.745L 466.745,256L 416,256 L 416,306.745 z M 224,434.745L 274.745,384L 224,384 L 224,434.745 z M 32,448l 160,0 l0-96 l 96,0 l0-224 L 32,128 L 32,448 z M 480,0L 224,0 l0,96 l 96,0 L 320,320 l 64,0 l0-96 l 96,0 L 480,0 z" data-tags="copy, duplicate, files, pages, papers, documents" />
<glyph unicode="&#xe242;" d="M 440,352l-24,0 l0,24 c0,22.056-17.944,40-40,40l-24,0 L 352,440 c0,22.056-17.943,40-40,40l-240,0 c-22.056,0-40-17.944-40-40l0-304 c0-22.057, 17.944-40, 40-40l 24,0 l0-24 c0-22.057, 17.944-40, 40-40l 24,0 l0-24 c0-22.056, 17.944-40, 40-40l 240,0 c 22.056,0, 40,17.944, 40,40L 480,312 C 480,334.056, 462.056,352, 440,352z M 72.001,128c-4.4,0-8,3.6-8,8L 64.001,440 c0,4.4, 3.6,8, 8,8l 240,0 c 4.4,0, 8-3.6, 8-8l0-24 L 136,416 c-22.056,0-40-17.944-40-40l0-248 L 72.001,128 z M 136,64c-4.4,0-8,3.6-8,8L 128,376 c0,4.4, 3.6,8, 8,8l 240,0 c 4.4,0, 8-3.6, 8-8l0-24 L 200,352 c-22.056,0-40-17.944-40-40l0-248 L 136,64 z M 448,8c0-4.4-3.6-8-8-8L 200,0 c-4.4,0-8,3.6-8,8L 192,312 c0,4.4, 3.6,8, 8,8l 240,0 c 4.4,0, 8-3.6, 8-8L 448,8 z" data-tags="stack, files, archive, category, papers, documents, layers" />
<glyph unicode="&#xe243;" d="M 488,128l-50.411,0 L 320,323.98L 320,424 c0,13.2-10.8,24-24,24l-80,0 c-13.2,0-24-10.8-24-24l0-100.019 L 74.412,128L 24,128 c-13.2,0-24-10.8-24-24l0-80 c0-13.2, 10.8-24, 24-24l 80,0 c 13.2,0, 24,10.8, 24,24L 128,124.020 L 245.588,320l 20.823,0 L 384,124.020L 384,24 c0-13.2, 10.8-24, 24-24l 80,0 c 13.2,0, 24,10.8, 24,24l0,80 C 512,117.2, 501.2,128, 488,128z" data-tags="tree, branches, binary tree" />
<glyph unicode="&#xe244;" d="M 488,96l-8,0 L 480,200 c0,30.878-25.121,56-56,56L 288,256 l0,64 l 8,0 c 13.2,0, 24,10.8, 24,24L 320,424 c0,13.2-10.8,24-24,24l-80,0 c-13.2,0-24-10.8-24-24l0-80 c0-13.2, 10.8-24, 24-24l 8,0 l0-64 L 88,256 c-30.878,0-56-25.122-56-56l0-104 l-8,0 c-13.2,0-24-10.8-24-24l0-80 c0-13.2, 10.8-24, 24-24l 80,0 c 13.2,0, 24,10.8, 24,24l0,80 c0,13.2-10.8,24-24,24l-8,0 l0,96 l 128,0 l0-96 l-8,0 c-13.2,0-24-10.8-24-24l0-80 c0-13.2, 10.8-24, 24-24l 80,0 c 13.2,0, 24,10.8, 24,24l0,80 c0,13.2-10.8,24-24,24l-8,0 l0,96 l 128,0 l0-96 l-8,0 c-13.2,0-24-10.8-24-24l0-80 c0-13.2, 10.8-24, 24-24l 80,0 c 13.2,0, 24,10.8, 24,24l0,80 C 512,85.2, 501.2,96, 488,96z M 96,0L 32,0 l0,64 l 64,0 L 96,0 z M 288,0l-64,0 l0,64 l 64,0 L 288,0 z M 224,352L 224,416 l 64,0 l0-64 L 224,352 z M 480,0l-64,0 l0,64 l 64,0 L 480,0 z" data-tags="tree, branches, descendants" />
<glyph unicode="&#xe246;" d="M0,448L 512,448L 512,384L0,384zM0,352L 320,352L 320,288L0,288zM0,160L 320,160L 320,96L0,96zM0,256L 512,256L 512,192L0,192zM0,64L 512,64L 512,0L0,0z" data-tags="paragraph-left, align left, left, wysiwyg" />
<glyph unicode="&#xe247;" d="M0,448L 512,448L 512,384L0,384zM 96,352L 416,352L 416,288L 96,288zM 96,160L 416,160L 416,96L 96,96zM0,256L 512,256L 512,192L0,192zM0,64L 512,64L 512,0L0,0z" data-tags="paragraph-center, align center, center, wysiwyg" />
<glyph unicode="&#xe248;" d="M0,448L 512,448L 512,384L0,384zM 192,352L 512,352L 512,288L 192,288zM 192,160L 512,160L 512,96L 192,96zM0,256L 512,256L 512,192L0,192zM0,64L 512,64L 512,0L0,0z" data-tags="paragraph-right, align right, right, wysiwyg" />
<glyph unicode="&#xe249;" d="M0,448L 512,448L 512,384L0,384zM0,352L 512,352L 512,288L0,288zM0,256L 512,256L 512,192L0,192zM0,160L 512,160L 512,96L0,96zM0,64L 512,64L 512,0L0,0z" data-tags="paragraph-justify, wysiwyg, justify" />
<glyph unicode="&#xe01c;" d="M 512,64L 512,448 L0,448 l0-384 l 224,0 l0-32 l-96,0 l0-32 l 256,0 l0,32 l-96,0 l0,32 L 512,64 z M 64,384l 384,0 l0-256 L 64,128 L 64,384 z" data-tags="screen, monitor, computer, pc, desktop" />
<glyph unicode="&#xe01d;" d="M 400,480L 80,480 C 53.6,480, 32,458.4, 32,432l0-416 c0-26.4, 21.6-48, 48-48l 320,0 c 26.4,0, 48,21.6, 48,48L 448,432 C 448,458.4, 426.4,480, 400,480z M 240-16 c-8.836,0-16,7.163-16,16s 7.164,16, 16,16s 16-7.163, 16-16S 248.836-16, 240-16z M 384,32L 96,32 L 96,416 l 288,0 L 384,32 z" data-tags="tablet, mobile" />
<glyph unicode="&#xe01e;" d="M 384,480L 96,480 C 78.4,480, 64,465.601, 64,448l0-448 c0-17.6, 14.399-32, 32-32l 288,0 c 17.6,0, 32,14.4, 32,32L 416,448 C 416,465.601, 401.6,480, 384,480z M 240-8.891c-13.746,0-24.891,11.145-24.891,24.891s 11.145,24.891, 24.891,24.891s 24.891-11.145, 24.891-24.891 S 253.746-8.891, 240-8.891z M 384,64L 96,64 L 96,416 l 288,0 L 384,64 z" data-tags="mobile, phone, handheld" />
<glyph unicode="&#x51;" d="M 416,448L 96,448 L0,352l0-336 c0-8.837, 7.163-16, 16-16l 480,0 c 8.836,0, 16,7.163, 16,16L 512,352 L 416,448z M 256,64L 96,192l 96,0 l0,96 l 128,0 l0-96 l 96,0 L 256,64z M 77.255,384l 32,32l 293.489,0 l 32-32L 77.255,384 z" data-tags="box-add, storage, inbox, archive, download" />
<glyph unicode="&#x52;" d="M 416,448L 96,448 L0,352l0-336 c0-8.837, 7.163-16, 16-16l 480,0 c 8.836,0, 16,7.163, 16,16L 512,352 L 416,448z M 320,160l0-96 L 192,64 l0,96 L 96,160 l 160,128 l 160-128L 320,160 z M 77.255,384l 32,32l 293.488,0 l 32-32L 77.255,384 z" data-tags="box-remove, storage, inbox, archive, upload" />
<glyph unicode="&#xe021;" d="M 448,128L 448,64L 64,64L 64,128L0,128L0,0L 512,0L 512,128 zM 384,288L 288,288L 288,448L 224,448L 224,288L 128,288L 256,96 z" data-tags="download, arrow, store, save, inbox" />
<glyph unicode="&#xe022;" d="M 448,128L 448,64L 64,64L 64,128L0,128L0,0L 512,0L 512,128 zM 128,256L 224,256L 224,96L 288,96L 288,256L 384,256L 256,448 z" data-tags="upload, arrow, load, outbox" />
<glyph unicode="&#x21;" d="M 512,184.777 L 256,383.491 L 0,184.777 L 0,265.796 L 256,464.509 L 512,265.795 ZM 448,192 L 448,0 L 64,0 L 64,192 L 256,336 Z" data-tags="home, house, building" />
<glyph unicode="&#xe250;" d="M 448,192 L 448,0 L 64,0 L 64,192 L 128,192 L 128,64 L 384,64 L 384,192 ZM 512,184.777 L 256,383.491 L 0,184.777 L 0,265.796 L 256,464.509 L 512,265.795 Z" data-tags="home, house, building" />
<glyph unicode="&#xe024;" d="M 352,192 L 416,256 L 416,0 L 32,0 L 32,384 L 288,384 L 224,320 L 96,320 L 96,64 L 352,64 ZM 480,448 L 480,272 L 414.628,337.372 L 237.255,160 L 192,160 L 192,205.256 L 369.372,382.628 L 304,448 Z" data-tags="new tab, external, outside, popout, link, blank" />
<glyph unicode="&#xe251;" d="M 96,448l0-384 l 384,0 L 480,448 L 96,448 z M 448,96L 128,96 L 128,416 l 320,0 L 448,96 zM 64,32L 64,352L 32,384L 32,0L 416,0L 384,32 zM 214.627,137.373L 310.627,233.373L 384,160L 384,352L 192,352L 265.373,278.627L 169.373,182.627 z" data-tags="new tab, external, outside, popout, link, blank" />
<glyph unicode="&#xe252;" d="M 476.698,442.679l-2.014,2.021c-47.074,47.067-124.097,47.067-171.163,0L 194.468,335.632 c-47.067-47.066-47.067-124.088,0-171.155l 2.013-2.013c 3.916-3.924, 8.073-7.462, 12.368-10.729l 39.924,39.925 c-4.651,2.747-9.063,6.036-13.058,10.030l-2.021,2.021c-25.557,25.549-25.557,67.136,0,92.695L 342.758,405.462 c 25.558,25.559, 67.137,25.559, 92.693,0l 2.021-2.012c 25.55-25.558, 25.55-67.146,0-92.695l-49.343-49.343 c 8.566-21.154, 12.624-43.7, 12.269-66.193l 76.302,76.302C 523.767,318.589, 523.767,395.61, 476.698,442.679zM 315.521,285.533c-3.916,3.916-8.073,7.461-12.368,10.72l-39.924-39.916c 4.652-2.748, 9.063-6.037, 13.058-10.031l 2.021-2.020 c 25.558-25.558, 25.558-67.136,0-92.694L 169.243,42.525c-25.559-25.551-67.138-25.551-92.694,0l-2.021,2.021 c-25.549,25.56-25.549,67.138,0,92.694l 49.344,49.343c-8.567,21.153-12.623,43.701-12.269,66.193l-76.301-76.299 c-47.068-47.066-47.068-124.089,0-171.162l 2.013-2.016c 47.076-47.064, 124.096-47.064, 171.164,0l 109.055,109.059 c 47.067,47.066, 47.067,124.097,0,171.163L 315.521,285.533z" data-tags="link, chain, url, uri, anchor" />
<glyph unicode="&#x2f;" d="M0,416l0-384 l 512,0 L 512,416 L0,416 z M 480,64l-32,0 l-96,144l-64-48L 160,320L 64,64L 32,64 L 32,384 l 448,0 L 480,64 zM 352,304A48,48 13140 1 0 448,304A48,48 13140 1 0 352,304z" data-tags="image, picture, photo, graphic" />
<glyph unicode="&#x30;" d="M 64,352l0-320 l 448,0 L 512,352 L 64,352 z M 480,85.333L 416,192l-72.533-60.444L 288,224L 96,64L 96,320 l 384,0 L 480,85.333 zM 128,240A48,48 8100 1 0 224,240A48,48 8100 1 0 128,240zM 448,416L0,416L0,96L 32,96L 32,384L 448,384 z" data-tags="images, pictures, photos, graphics" />
<glyph unicode="&#xe014;" d="M 257.54,416C 92.994,416,0,306.648,0,226.653c0-121.887, 109.354-190.477, 200.308-212.956 C 291.27-8.791, 325.48,32.462, 324.022,80c-1.771,57.75, 27.073,58.496, 47.52,56.459C 391.973,134.408, 512,106.695, 512,198.674 C 512,312.5, 422.072,416, 257.54,416z M 224,384c 17.673,0, 32-14.327, 32-32s-14.327-32-32-32s-32,14.327-32,32S 206.327,384, 224,384z M 80,191.754c-8.973,0-16.246,7.273-16.246,16.246S 71.027,224.246, 80,224.246S 96.246,216.973, 96.246,208S 88.973,191.754, 80,191.754z M 128,256c-17.673,0-32,14.327-32,32s 14.327,32, 32,32s 32-14.327, 32-32S 145.673,256, 128,256z M 256,128c-35.346,0-64,21.49-64,48 s 28.654,48, 64,48c 35.347,0, 64-21.49, 64-48S 291.347,128, 256,128z M 368,256c-26.51,0-48,21.49-48,48s 21.49,48, 48,48s 48-21.49, 48-48 S 394.51,256, 368,256z" data-tags="palette, color, paint, art" />
<glyph unicode="&#x55;" d="M 152,176c0-57.438, 46.562-104, 104-104s 104,46.562, 104,104s-46.562,104-104,104S 152,233.438, 152,176z M 480,352L 368,352 c-8,32-16,64-48,64L 192,416 c-32,0-40-32-48-64L 32,352 c-17.6,0-32-14.4-32-32l0-288 c0-17.6, 14.4-32, 32-32l 448,0 c 17.6,0, 32,14.4, 32,32L 512,320 C 512,337.6, 497.6,352, 480,352z M 256,34c-78.425,0-142,63.574-142,142c0,78.425, 63.575,142, 142,142c 78.426,0, 142-63.575, 142-142 C 398,97.574, 334.427,34, 256,34z M 480,256l-64,0 l0,32 l 64,0 L 480,256 z" data-tags="camera, photo, picture, image" />
<glyph unicode="&#xe015;" d="M 489.42,351.874c-5.294,0-10.729-1.861-15.718-5.383L 384,283.184L 384,336 c0,26.4-21.6,48-48,48L 48,384 c-26.4,0-48-21.6-48-48l0-224 c0-26.4, 21.6-48, 48-48l 288,0 c 26.4,0, 48,21.6, 48,48l0,52.815 l 89.701-63.307c 4.989-3.521, 10.424-5.382, 15.717-5.383 c 0.001,0, 0.001,0, 0.003,0c 7.044,0, 13.477,3.248, 17.646,8.911c 3.228,4.385, 4.934,10.027, 4.934,16.318L 512.001,326.645 C 512,343.208, 500.641,351.874, 489.42,351.874z" data-tags="camera, video, media, film, movie" />
<glyph unicode="&#x56;" d="M 490.594,399.946C 418.778,410.271, 339.428,416, 256.001,416c-83.43,0-162.778-5.729-234.597-16.054 C 7.639,346.083,0,286.571,0,224c0-62.57, 7.639-122.083, 21.404-175.945C 93.223,37.729, 172.572,32, 256.001,32 c 83.427,0, 162.776,5.729, 234.593,16.055C 504.36,101.917, 512,161.43, 512,224C 512,286.571, 504.36,346.083, 490.594,399.946z M 192.001,128L 192.001,320 l 160-96L 192.001,128z" data-tags="play, video, movie" />
<glyph unicode="&#x57;" d="M 480,480 L 512,480 L 512,112 C 512,67.817 461.855,32 400,32 C 338.145,32 288,67.817 288,112 C 288,156.184 338.145,192 400,192 C 431.342,192 459.671,182.8 480,167.98 L 480,352 L 224,295.111 L 224,48 C 224,3.817 173.856-32 112-32 C 50.144-32 0,3.817 0,48 C 0,92.184 50.144,128 112,128 C 143.342,128 171.671,118.8 192,103.98 L 192,416 L 480,480 Z" data-tags="music, song, audio, sound" />
<glyph unicode="&#x22;" d="M 311.413,128.632c-11.055,1.759-11.307,32.157-11.307,32.157s 32.484,32.158, 39.564,75.401 c 19.045,0, 30.809,45.973, 11.761,62.148C 352.226,315.365, 375.911,432, 256,432c-119.911,0-96.225-116.635-95.432-133.662 c-19.047-16.175-7.285-62.148, 11.761-62.148c 7.079-43.243, 39.564-75.401, 39.564-75.401s-0.252-30.398-11.307-32.157 C 164.976,122.966, 32,64.315, 32,0l 224,0 l 224,0 C 480,64.315, 347.024,122.966, 311.413,128.632z" data-tags="user, profile, avatar, person, talk, member" />
<glyph unicode="&#xe01f;" d="M 367.497,77.313c-9.476,1.494-9.692,27.327-9.692,27.327s 27.844,27.328, 33.912,64.076 c 16.326,0, 26.407,39.069, 10.082,52.814c 0.681,14.47, 20.984,113.588-81.799,113.588c-102.782,0-82.479-99.118-81.799-113.588 c-16.327-13.745-6.244-52.814, 10.081-52.814c 6.067-36.748, 33.913-64.076, 33.913-64.076s-0.216-25.833-9.692-27.327 C 241.979,72.497, 128,22.655, 128-32l 192,0 l 192,0 C 512,22.655, 398.021,72.497, 367.497,77.313zM 172.027,68.595c 22.047,13.575, 48.813,26.154, 70.769,33.712c-7.876,11.216-16.647,26.468-22.165,44.531 c-7.703,6.283-13.972,15.266-17.999,26.301c-4.033,11.052-5.561,23.426-4.304,34.842c 0.902,8.196, 3.239,15.833, 6.825,22.544 c-2.175,23.293-3.707,69.017, 26.224,102.366c 11.607,12.933, 26.278,22.23, 43.85,27.843C 272.090,393.114, 255.647,431.119, 192,431.119 c-102.782,0-82.479-99.118-81.799-113.588c-16.327-13.745-6.244-52.814, 10.081-52.814c 6.067-36.748, 33.913-64.076, 33.913-64.076 s-0.216-25.833-9.692-27.327C 113.979,168.497,0,118.655,0,64l 164.798,0 C 167.153,65.537, 169.551,67.070, 172.027,68.595z" data-tags="users, people, group, team, members, community" />
<glyph unicode="&#x6d;" d="M 448,384L 64,384 c-35.2,0-64-28.8-64-64l0-224 c0-35.2, 28.8-64, 64-64l 384,0 c 35.2,0, 64,28.8, 64,64L 512,320 C 512,355.2, 483.2,384, 448,384z M 64,96c0,70.692, 35.817,128, 80,128c-26.51,0-48,21.49-48,48s 21.49,48, 48,48s 48-21.49, 48-48s-21.49-48-48-48 c 44.183,0, 80-57.308, 80-128L 64,96 z M 448,96L 288,96 l0,32 l 160,0 L 448,96 z M 448,192L 288,192 l0,32 l 160,0 L 448,192 z M 448,288L 288,288 l0,32 l 160,0 L 448,288 z" data-tags="vcard, card, contact" />
<glyph unicode="&#x70;" d="M 32,256L 80,256L 80,176L 32,176zM 32,352L 80,352L 80,272L 32,272zM 32,160L 80,160L 80,80L 32,80zM 32,64L 80,64L 80-16L 32-16zM 96,480l0-512 l 384,0 L 480,480 L 96,480 z M 288,351.835c 35.255,0, 63.835-28.58, 63.835-63.835s-28.58-63.835-63.835-63.835 c-35.255,0-63.835,28.58-63.835,63.835S 252.745,351.835, 288,351.835z M 384,96L 192,96 l0,32 c0,35.347, 28.654,64, 64,64l0,0 l 64,0  c 35.348,0, 64-28.653, 64-64L 384,96 zM 32,448L 80,448L 80,368L 32,368z" data-tags="address-book, book, contacts" />
<glyph unicode="&#x26;" d="M 128,160c0,0, 29.412,96, 192,96l0-96 l 192,128L 320,416l0-96 C 192,320, 128,240.164, 128,160zM 352,96L 64,96 L 64,288 l 62.938,0 c 5.047,5.959, 10.456,11.667, 16.244,17.090c 21.982,20.595, 48.281,36.326, 78.057,46.91L0,352 l0-320 l 416,0 L 416,166.312 l-64-42.667L 352,96 z" data-tags="share, out, external, outside" />
<glyph unicode="&#xe257;" d="M 192,224 L 32,224 L 32,288 L 192,288 L 192,352 L 288,256 L 192,160 ZM 512,480 L 512,64 L 320-32 L 320,64 L 128,64 L 128,192 L 160,192 L 160,96 L 320,96 L 320,384 L 448,448 L 160,448 L 160,320 L 128,320 L 128,480 Z" data-tags="enter, sign in, log in, login" />
<glyph unicode="&#xe258;" d="M 384,160 L 384,224 L 224,224 L 224,288 L 384,288 L 384,352 L 480,256 ZM 352,192 L 352,64 L 192,64 L 192-32 L 0,64 L 0,480 L 352,480 L 352,320 L 320,320 L 320,448 L 64,448 L 192,384 L 192,96 L 320,96 L 320,192 Z" data-tags="exit, sign out, log out, quit, close, logout" />
<glyph unicode="&#x24;" d="M 464,448 C 490.4,448 512,426.4 512,400 L 512,144 C 512,117.6 490.4,96 464,96 L 281.6,96 L 128-32 L 128,96 L 48,96 C 21.6,96 0,117.6 0,144 L 0,400 C 0,426.4 21.6,448 48,448 L 464,448 Z" data-tags="bubble, comment, chat, talk" />
<glyph unicode="&#x25;" d="M 400,480 C 426.4,480 448,458.4 448,432 L 448,272 C 448,245.6 426.4,224 400,224 L 217.6,224 L 64,96 L 64,224 L 48,224 C 21.6,224 0,245.6 0,272 L 0,432 C 0,458.4 21.6,480 48,480 L 400,480 ZM 528,384 C 554.4,384 576,362.4 576,336 L 576,144 C 576,117.6 554.4,96 528,96 L 448,96 L 448-32 L 294.4,96 L 192,96 L 192,160 L 317.57,160 L 416,72.643 L 416,160 L 512,160 L 512,320 L 480,320 L 480,384 L 528,384 Z" horiz-adv-x="576" data-tags="bubbles, comments, chat, talk" />
<glyph unicode="&#x60;" d="M 112.5,256 C 174.356,256 224.5,205.855 224.5,144 C 224.5,82.144 174.356,32 112.5,32 C 50.644,32 0.5,82.144 0.5,144 L 0,160 C 0,283.712 100.288,384 224,384 L 224,320 C 181.263,320 141.083,303.357 110.863,273.137 C 105.046,267.319 99.737,261.129 94.948,254.627 C 100.667,255.527 106.528,256 112.5,256 ZM 400.5,256 C 462.355,256 512.5,205.855 512.5,144 C 512.5,82.144 462.355,32 400.5,32 C 338.645,32 288.5,82.144 288.5,144 L 288,160 C 288,283.712 388.288,384 512,384 L 512,320 C 469.263,320 429.083,303.357 398.863,273.137 C 393.045,267.319 387.736,261.129 382.947,254.627 C 388.667,255.527 394.527,256 400.5,256 Z" data-tags="quotes-left, ldquo" />
<glyph unicode="&#x61;" d="M 400,160 C 338.144,160 288,210.145 288,272 C 288,333.856 338.144,384 400,384 C 461.856,384 512,333.856 512,272 L 512.5,256 C 512.5,132.288 412.212,32 288.5,32 L 288.5,96 C 331.237,96 371.417,112.643 401.637,142.863 C 407.454,148.681 412.763,154.871 417.552,161.373 C 411.833,160.473 405.972,160 400,160 ZM 112,160 C 50.145,160 0,210.145 0,272 C 0,333.856 50.145,384 112,384 C 173.855,384 224,333.856 224,272 L 224.5,256 C 224.5,132.288 124.212,32 0.5,32 L 0.5,96 C 43.237,96 83.417,112.643 113.637,142.863 C 119.455,148.681 124.764,154.871 129.553,161.373 C 123.833,160.473 117.973,160 112,160 Z" data-tags="quotes-right, rdquo" />
<glyph unicode="&#xe259;" d="M 464,480L 48,480 C 21.6,480,0,458.4,0,432l0-288 c0-26.4, 21.6-48, 48-48l 80,0 l0-128 l 153.6,128L 464,96 c 26.4,0, 48,21.6, 48,48L 512,432 C 512,458.4, 490.4,480, 464,480z M 224,344.615c-29.821-6.85-55.189-28.007-70.488-56.941C 155.646,287.889, 157.81,288, 160,288 c 35.346,0, 64-28.654, 64-64c0-35.346-28.654-64-64-64s-64,28.654-64,64c0,43.612, 15.198,84.729, 42.795,115.775 C 162.042,365.927, 191.74,382.388, 224,387.379L 224,344.615 z M 416,344.615c-29.82-6.85-55.189-28.007-70.488-56.941 C 347.646,287.889, 349.81,288, 352,288c 35.346,0, 64-28.654, 64-64c0-35.346-28.654-64-64-64s-64,28.654-64,64 c0,43.612, 15.198,84.729, 42.795,115.775C 354.041,365.927, 383.74,382.388, 416,387.379L 416,344.615 z" data-tags="bubble-quote, comment, chat, talk, quote" />
<glyph unicode="&#xe260;" d="M 457.153,376.352 C 510.42,346.068 512,313.643 512.002,291.003 L 512.002,287.606 C 512.002,282.424 507.533,278.188 502.074,278.188 L 381.928,278.188 C 376.469,278.188 372,282.424 372,287.606 L 372,299.059 C 372,327.664 304.645,332.234 329.551,334.664 C 314.455,337.090 276.934,339.441 256.071,339.441 C 256.045,339.441 256.025,339.441 256.005,339.441 C 255.976,339.441 255.956,339.441 255.928,339.441 C 235.066,339.441 197.541,337.091 182.448,334.664 C 167.355,332.237 139.999,327.666 139.999,299.059 L 139.999,287.606 C 139.999,282.424 135.53,278.188 130.073,278.188 L 9.927,278.188 C 4.47,278.188 0.001,282.424 0.001,287.606 L 0.001,291.003 C 0.001,313.643 1.581,346.068 54.848,376.352 C 118.198,412.362 208.777,416 255.928,416 C 255.956,415.975 255.976,415.945 256.005,415.922 C 256.023,415.944 256.044,415.976 256.071,416 C 303.223,416 393.803,412.366 457.153,376.352 ZM 256.001,288c-28.374,0-87.443-2.126-117.456-38.519C 108.523,213.098, 33.455,32, 100.398,32c 66.956,0, 125.458,0, 155.606,0 c 30.137,0, 88.648,0, 155.595,0c 66.945,0-8.125,181.098-38.137,217.481C 343.444,285.874, 284.362,288, 256.001,288z M 256,96 c-35.346,0-64,28.653-64,64s 28.654,64, 64,64c 35.347,0, 64-28.653, 64-64S 291.347,96, 256,96z" data-tags="phone, contact, telephone, support, call" />
<glyph unicode="&#xe261;" d="M 352,160c-32-32-32-64-64-64s-64,32-96,64s-64,64-64,96s 32,32, 64,64S 128,448, 96,448S0,352,0,352c0-64, 65.75-193.75, 128-256 s 192-128, 256-128c0,0, 96,64, 96,96S 384,192, 352,160z" data-tags="phone, contact, telephone, support, call" />
<glyph unicode="&#x4d;" d="M 325.608,214.818L 512,86.264L 512,382.211 zM0,382.211L0,86.264L 186.388,214.836 zM 256,152.309L 211.499,192.264L0,64L 512,64L 300.495,192.264 zM 496.64,384L 15.36,384L 256,203.074 z" data-tags="envelop, mail, email, contact, letter" />
<glyph unicode="&#x4e;" d="M 325.607,118.95L 512-9.605L 512,286.343 zM0,286.343L0-9.605L 186.388,118.968 zM 256,56.44L 211.499,96.395L0-31.868L 512-31.868L 300.494,96.395 zM 15.359,288L 496.64,288L 255.999,468.926 z" data-tags="envelop-opened, mail, email, contact, letter" />
<glyph unicode="&#x4f;" d="M 352,384L 160,384 L0,192l0-80 l0-48 c0-17.673, 14.327-32, 32-32l 448,0 c 17.674,0, 32,14.327, 32,32l0,48 l0,80 L 352,384z M 384,192l-64-64L 192,128 l-64,64L 41.655,192 l 133.333,160l 162.024,0 l 133.333-160L 384,192 z" data-tags="drawer, inbox, box, archive, storage, category" />
<glyph unicode="&#x50;" d="M 352,384L 160,384 L0,192l0-128 c0-17.673, 14.327-32, 32-32l 448,0 c 17.674,0, 32,14.327, 32,32L 512,192 L 352,384z M 320,128L 192,128 l-32,32l 192,0  L 320,128z M 41.655,192l 133.333,160l 162.024,0 l 133.333-160L 41.655,192 zM 142.482,288L 369.518,288L 342.851,320L 169.148,320 zM 89.149,224L 422.852,224L 396.185,256L 115.815,256 z" data-tags="drawer, inbox, box, archive, storage, category" />
<glyph unicode="&#xe020;" d="M 480,352L 352,352 L 352,384 c0,17.6-14.4,32-32,32L 192,416 c-17.602,0-32-14.4-32-32l0-32 L 32,352 c-17.6,0-32-14.4-32-32l0-288 c0-17.601, 14.398-32, 32-32l 448,0 c 17.6,0, 32,14.399, 32,32L 512,320 C 512,337.6, 497.6,352, 480,352z M 192,383.942 c 0.017,0.020, 0.037,0.041, 0.057,0.058l 127.886,0 c 0.021-0.017, 0.041-0.038, 0.059-0.058L 320.002,352 L 192,352 L 192,383.942 z M 480,224l-64,0 l0-48 c0-8.801-7.2-16-16-16l-32,0 c-8.802,0-16,7.199-16,16l0,48 L 160,224 l0-48 c0-8.801-7.2-16-16-16l-32,0 c-8.801,0-16,7.199-16,16l0,48 L 32,224 l0,32 l 448,0 L 480,224 z" data-tags="briefcase, portfolio, suitcase, work, job, employee" />
<glyph unicode="&#xe262;" d="M 272,480L0,208l 240-240l 272,272L 512,480 L 272,480 z M 400,320c-26.51,0-48,21.49-48,48s 21.49,48, 48,48s 48-21.49, 48-48S 426.51,320, 400,320z" data-tags="tag, price" />
<glyph unicode="&#xe263;" d="M 448,416 L 298.51,416 L 90.51,208 L 240,58.51 L 448,266.51 L 448,416 Z M 512,480 L 512,480 L 512,240 L 240-32 L 0,208 L 272,480 L 512,480 ZM 320,336A48,48 3060 1 0 416,336A48,48 3060 1 0 320,336z" data-tags="tag, price" />
<glyph unicode="&#xe264;" d="M 496,448L 384,448 c-26.4,0-63.273-15.273-81.941-33.941L 113.941,225.941c-18.667-18.667-18.667-49.214,0-67.882l 140.118-140.117 c 18.667-18.668, 49.214-18.668, 67.882,0l 188.117,188.117C 528.727,224.727, 544,261.6, 544,288L 544,400 C 544,426.4, 522.4,448, 496,448z M 432,288 c-26.51,0-48,21.49-48,48s 21.49,48, 48,48s 48-21.49, 48-48S 458.51,288, 432,288zM 43.313,180.687 L 214.502,9.498 C 196.37-0.082 173.271,2.729 158.059,17.942 L 17.941,158.059 C -0.726,176.727 -0.726,207.274 17.941,225.941 L 206.059,414.059 C 224.727,432.727 261.6,448 288,448 L 43.313,203.314 C 37.091,197.091 37.091,186.91 43.313,180.687 Z" horiz-adv-x="544" data-tags="tags, prices" />
<glyph unicode="&#xe265;" d="M 480,384 L 384,384 C 381.158,384 373.652,382.643 364.621,378.902 C 355.59,375.161 349.322,370.813 347.312,368.804 L 170.509,192 L 288,74.51 L 464.803,251.314 C 466.813,253.323 471.161,259.591 474.901,268.622 C 478.643,277.652 480,285.158 480,288 L 480,384 Z M 496,448 L 496,448 C 522.4,448 544,426.4 544,400 L 544,288 C 544,261.6 528.727,224.727 510.058,206.059 L 321.941,17.942 C 312.607,8.608 300.304,3.941 288,3.941 C 275.696,3.941 263.392,8.608 254.059,17.942 L 113.941,158.059 C 95.274,176.727 95.274,207.274 113.941,225.941 L 302.059,414.059 C 320.727,432.727 357.6,448 384,448 L 496,448 ZM 43.313,180.687 L 214.502,9.498 C 196.37-0.082 173.271,2.729 158.059,17.942 L 17.941,158.059 C -0.726,176.727 -0.726,207.274 17.941,225.941 L 206.059,414.059 C 224.727,432.727 261.6,448 288,448 L 43.313,203.314 C 37.091,197.091 37.091,186.91 43.313,180.687 ZM 384,320A32,32 3060 1 0 448,320A32,32 3060 1 0 384,320z" horiz-adv-x="544" data-tags="tags, prices" />
<glyph unicode="&#x38;" d="M 466.895,174.875c-26.863,46.527-10.708,106.152, 36.076,133.244l-50.313,87.146c-14.375-8.427-31.088-13.259-48.923-13.259 c-53.768,0-97.354,43.873-97.354,97.995L 205.752,480.001 c 0.133-16.705-4.037-33.641-12.979-49.126 c-26.862-46.528-86.578-62.351-133.431-35.379L 9.030,308.35c 14.485-8.236, 27.025-20.294, 35.943-35.739 c 26.819-46.454, 10.756-105.96-35.854-133.112l 50.313-87.146c 14.325,8.348, 30.958,13.127, 48.7,13.127 c 53.598,0, 97.072-43.596, 97.35-97.479l 100.627,0 c-0.043,16.537, 4.136,33.285, 12.983,48.609 c 26.818,46.453, 86.388,62.297, 133.207,35.506l 50.313,87.145C 488.222,147.494, 475.766,159.51, 466.895,174.875z M 256,120.334 c-57.254,0-103.668,46.412-103.668,103.667c0,57.254, 46.413,103.667, 103.668,103.667c 57.254,0, 103.666-46.413, 103.666-103.667 C 359.665,166.746, 313.254,120.334, 256,120.334z" data-tags="cog, preferences, settings, gear, generate, control, options" />
<glyph unicode="&#x37;" d="M 181.861,118.974l 20.649,28.908l-22.627,22.628l-28.909-20.648c-5.361,2.997-11.102,5.387-17.133,7.096L 128,192L 96,192 l-5.84-35.043c-6.031-1.709-11.772-4.099-17.133-7.096L 44.118,170.51L 21.49,147.882l 20.649-28.908 c-2.997-5.36-5.387-11.103-7.096-17.133L0,96l0-32 l 35.043-5.841c 1.709-6.030, 4.099-11.772, 7.096-17.133L 21.49,12.118l 22.627-22.628 l 28.909,20.648c 5.361-2.997, 11.102-5.387, 17.133-7.096L 96-32l 32,0 l 5.84,35.043c 6.031,1.709, 11.772,4.099, 17.133,7.096l 28.909-20.648 l 22.627,22.628l-20.649,28.908c 2.997,5.36, 5.387,11.103, 7.096,17.133L 224,64l0,32 l-35.043,5.841 C 187.248,107.871, 184.858,113.613, 181.861,118.974z M 112,48c-17.674,0-32,14.327-32,32s 14.326,32, 32,32s 32-14.327, 32-32 S 129.674,48, 112,48zM 512,288l0,32 l-33.691,6.125c-0.621,4.023-1.416,7.989-2.362,11.895l 28.779,18.55L 492.48,386.134l-33.472-7.234 c-2.107,3.455-4.363,6.81-6.746,10.065l 19.503,28.171l-22.628,22.627l-28.171-19.503c-3.256,2.383-6.61,4.638-10.065,6.747 l 7.234,33.472L 388.571,472.726l-18.55-28.779c-3.906,0.946-7.872,1.741-11.895,2.362L 352,480l-32,0 l-6.126-33.691 c-4.023-0.621-7.988-1.416-11.895-2.362L 283.43,472.726L 253.866,460.48l 7.234-33.472c-3.455-2.108-6.81-4.364-10.065-6.747 l-28.171,19.503l-22.627-22.627l 19.503-28.171c-2.383-3.255-4.639-6.61-6.747-10.065l-33.472,7.234l-12.246-29.564l 28.779-18.55 c-0.946-3.906-1.741-7.871-2.362-11.895L 160,320l0-32 l 33.691-6.125c 0.621-4.023, 1.416-7.989, 2.362-11.895l-28.779-18.55 l 12.246-29.564l 33.472,7.234c 2.108-3.455, 4.364-6.809, 6.747-10.065l-19.503-28.171l 22.627-22.628l 28.171,19.503 c 3.255-2.383, 6.61-4.638, 10.065-6.746l-7.234-33.472l 29.564-12.246l 18.551,28.779c 3.905-0.946, 7.871-1.741, 11.894-2.362L 320,128l 32,0 l 6.126,33.691c 4.022,0.621, 7.988,1.416, 11.895,2.362l 18.55-28.779l 29.564,12.246l-7.234,33.472 c 3.455,2.108, 6.81,4.363, 10.065,6.746l 28.171-19.503l 22.628,22.628l-19.503,28.171c 2.383,3.256, 4.638,6.61, 6.746,10.065 l 33.472-7.234l 12.246,29.565l-28.779,18.55c 0.946,3.906, 1.741,7.871, 2.362,11.895L 512,288z M 336,234.4 c-38.439,0-69.6,31.161-69.6,69.6c0,38.439, 31.16,69.6, 69.6,69.6s 69.6-31.161, 69.6-69.6C 405.6,265.561, 374.44,234.4, 336,234.4z" data-tags="cogs, settings, gears, generate, control, options" />
<glyph unicode="&#x36;" d="M 507.256,84.744L 308.744,283.256c-11.030,11.031-38.41,2.154-65.372-19.758L 96,410.87L 80,448L 28.768,480L0,451.232L 32,400 l 37.13-16l 147.373-147.372c-21.913-26.963-30.79-54.342-19.76-65.372c 0.003-0.003, 0.006-0.005, 0.009-0.008l 198.503-198.504 c 12.976-12.975, 48.565,1.579, 79.494,32.508C 505.677,36.18, 520.23,71.771, 507.256,84.744z M 445.435,34.565 c-3.71-3.71-8.572-5.565-13.435-5.565s-9.725,1.855-13.435,5.565l-160,160c-7.421,7.42-7.421,19.449,0,26.869 c 7.42,7.42, 19.449,7.42, 26.869,0l 160-160C 452.855,54.015, 452.855,41.985, 445.435,34.565z" data-tags="screwdriver, fix, tool, make, build" />
<glyph unicode="&#x3a;" d="M 507.882,411.883L 448,352l-64,64l 59.882,59.883C 435.057,478.557, 425.698,480, 416,480c-53.021,0-96-42.98-96-96 c0-9.697, 1.442-19.057, 4.116-27.882L 123.882,155.883C 115.057,158.557, 105.698,160, 96,160c-53.021,0-96-42.98-96-96 c0-9.697, 1.442-19.058, 4.117-27.882L 64,96l 64-64l-59.883-59.882C 76.943-30.556, 86.302-32, 96-32c 53.020,0, 96,42.981, 96,96 c0,9.698-1.444,19.059-4.118,27.883l 200.234,200.235C 396.943,289.444, 406.302,288, 416,288c 53.020,0, 96,42.981, 96,96 C 512,393.698, 510.556,403.058, 507.882,411.883z" data-tags="wrench, settings, control, tool, options, preferences, fix" />
<glyph unicode="&#x39;" d="M 144,320L 80,320 c-8.8,0-16-7.2-16-16l0-32 c0-8.8, 7.2-16, 16-16l 64,0 c 8.8,0, 16,7.2, 16,16l0,32 C 160,312.8, 152.8,320, 144,320zM 96,416L 128,416L 128,336L 96,336zM 96,240L 128,240L 128,32L 96,32zM 272,192l-64,0 c-8.8,0-16-7.2-16-16l0-32 c0-8.8, 7.2-16, 16-16l 64,0 c 8.801,0, 16,7.2, 16,16l0,32 C 288,184.8, 280.801,192, 272,192zM 224.001,416L 256.001,416L 256.001,208L 224.001,208zM 224.001,112L 256.001,112L 256.001,32L 224.001,32zM 400,288l-64,0 c-8.799,0-16-7.2-16-16l0-32 c0-8.8, 7.201-16, 16-16l 64,0 c 8.801,0, 16,7.2, 16,16l0,32 C 416,280.8, 408.801,288, 400,288zM 352,416L 384,416L 384,304L 352,304zM 352,208L 384,208L 384,32L 352,32zM 440,480L 40,480 C 17.944,480,0,462.056,0,440l0-432 c0-22.056, 17.944-40, 40-40l 400,0 c 22.056,0, 40,17.944, 40,40L 480,440  C 480,462.056, 462.056,480, 440,480z M 448,8c0-4.4-3.6-8-8-8L 40,0 c-4.4,0-8,3.6-8,8L 32,440 c0,4.4, 3.6,8, 8,8l 400,0 c 4.4,0, 8-3.6, 8-8L 448,8 z" data-tags="equalizer, control, options, settings, dashboard" />
<glyph unicode="&#x78;" d="M 256,480C 114.615,480,0,365.385,0,224s 114.615-256, 256-256s 256,114.615, 256,256S 397.385,480, 256,480z M 256,32 c-106.039,0-192,85.961-192,192c0,106.039, 85.961,192, 192,192c 106.039,0, 192-85.961, 192-192C 448,117.961, 362.039,32, 256,32zM 224,352A32,32 11340 1 0 288,352A32,32 11340 1 0 224,352zM 320,320A32,32 11340 1 0 384,320A32,32 11340 1 0 320,320zM 128,320A32,32 11340 1 0 192,320A32,32 11340 1 0 128,320zM 224,128L 224,96L 288,96L 288,128L 256,288 z" data-tags="dashboard, control panel" />
<glyph unicode="&#xe266;" d="M 320,406.706l0-67.979 c 18.103-7.902, 34.75-19.204, 49.137-33.59C 399.358,274.917, 416,234.737, 416,192 s-16.643-82.917-46.863-113.137C 338.917,48.643, 298.738,32, 256,32s-82.917,16.643-113.137,46.863 C 112.643,109.083, 96,149.263, 96,192s 16.643,82.917, 46.863,113.137c 14.387,14.387, 31.034,25.689, 49.137,33.591L 192,406.706  C 99.476,379.166, 32,293.47, 32,192c0-123.712, 100.289-224, 224-224c 123.712,0, 224,100.288, 224,224 C 480,293.47, 412.525,379.166, 320,406.706zM 224,480L 288,480L 288,224L 224,224z" data-tags="switch, power, turn off, off, shutdown" />
<glyph unicode="&#x54;" d="M 256,480C 114.615,480,0,444.183,0,400l0-48 l 192-192l0-160 c0-17.673, 28.653-32, 64-32c 35.346,0, 64,14.327, 64,32L 320,160 l 192,192L 512,400 C 512,444.183, 397.385,480, 256,480z M 47.192,410.588c 11.972,6.829, 28.791,13.31, 48.639,18.744C 139.803,441.37, 196.685,448, 256,448 c 59.314,0, 116.197-6.63, 160.169-18.668c 19.848-5.434, 36.667-11.915, 48.64-18.744c 7.896-4.503, 12.162-8.312, 14.148-10.588 c-1.986-2.276-6.253-6.084-14.148-10.588c-11.973-6.829-28.792-13.31-48.64-18.744C 372.198,358.63, 315.315,352, 256,352 c-59.315,0-116.197,6.63-160.169,18.668c-19.848,5.434-36.667,11.915-48.639,18.744C 39.296,393.916, 35.030,397.724, 33.043,400 C 35.030,402.276, 39.296,406.084, 47.192,410.588z" data-tags="filter, funnel" />
<glyph unicode="&#x4c;" d="M 64,0c0-17.673, 14.327-32, 32-32l 320,0 c 17.674,0, 32,14.327, 32,32L 448,352 L 64,352 L 64,0 z M 320,288l 64,0 l0-256 l-64,0 L 320,288 z M 224,288l 64,0 l0-256 l-64,0  L 224,288 z M 128,288l 64,0 l0-256 l-64,0 L 128,288 zM 448,448L 320,448 L 320,480 L 192,480 l0-32 L 64,448 C 28.654,448,0,419.346,0,384l 512,0 C 512,419.346, 483.347,448, 448,448z" data-tags="remove, delete, trashcan, recycle bin, bin, dispose" />
<glyph unicode="&#x23;" d="M 416,256l-32,0 l0,96 C 384,422.692, 326.692,480, 256,480c-70.692,0-128-57.308-128-128l0-96 L 96,256 c-17.6,0-32-14.4-32-32l0-224 c0-17.6, 14.4-32, 32-32l 320,0 c 17.6,0, 32,14.4, 32,32L 448,224 C 448,241.6, 433.6,256, 416,256z M 256,64c-17.673,0-32,14.327-32,32 s 14.327,32, 32,32s 32-14.327, 32-32S 273.673,64, 256,64z M 320,256L 192,256 l0,96 c0,35.29, 28.71,64, 64,64s 64-28.71, 64-64L 320,256 z" data-tags="lock, secure, private, encrypted" />
<glyph unicode="&#xe267;" d="M 256,64c-17.673,0-32,14.326-32,32c0,17.673, 14.327,32, 32,32s 32-14.327, 32-32C 288,78.326, 273.673,64, 256,64z M 192,256 l0,96 c0,35.29, 28.71,64, 64,64s 64-28.71, 64-64l0-32 l 64,0 l0,32 C 384,422.692, 326.692,480, 256,480c-70.692,0-128-57.309-128-128l0-96 L 96,256 c-17.601,0-32-14.4-32-32l0-224 c0-17.601, 14.399-32, 32-32l 320,0 c 17.6,0, 32,14.399, 32,32L 448,224 c0,17.6-14.4,32-32,32L 192,256 z" data-tags="unlock, secure, private, encrypted" />
<glyph unicode="&#x5f;" d="M 352,480c-88.365,0-160-71.634-160-160c0-10.013, 0.929-19.808, 2.688-29.312L0,96l0-96 c0-17.673, 14.327-32, 32-32 l 32,0 l0,32 l 64,0 l0,64 l 64,0 l0,64 l 64,0 l 41.521,41.521C 314.526,163.363, 332.869,160, 352,160c 88.365,0, 160,71.634, 160,160S 440.365,480, 352,480z M 399.937,319.937c-26.51,0-48,21.49-48,48s 21.49,48, 48,48s 48-21.49, 48-48S 426.447,319.937, 399.937,319.937z" data-tags="key, password, login, log in, signin, sign in" />
<glyph unicode="&#x46;" d="M 256,480C 114.615,480,0,365.385,0,224s 114.615-256, 256-256s 256,114.615, 256,256S 397.385,480, 256,480z M 160,224 c0,53.020, 42.98,96, 96,96s 96-42.98, 96-96s-42.98-96-96-96S 160,170.98, 160,224z M 462.99,138.262L 462.99,138.262l-88.71,36.745 C 380.539,190.099, 384,206.645, 384,224s-3.461,33.901-9.72,48.993l 61.063,25.293l 27.647,11.452C 473.944,283.327, 480,254.373, 480,224 C 480,193.627, 473.943,164.673, 462.99,138.262L 462.99,138.262z M 341.739,430.99L 341.739,430.99L 341.739,430.99l-36.745-88.71 C 289.902,348.539, 273.356,352, 256,352s-33.901-3.461-48.993-9.72l-17.23,41.599l-19.515,47.112C 196.673,441.943, 225.628,448, 256,448 C 286.373,448, 315.327,441.943, 341.739,430.99z M 49.010,309.738l 47.112-19.515l 41.599-17.23C 131.462,257.901, 128,241.355, 128,224 s 3.461-33.901, 9.72-48.993l-88.71-36.745C 38.057,164.673, 32,193.627, 32,224C 32,254.373, 38.057,283.327, 49.010,309.738z  M 170.262,17.010l 11.452,27.647l 25.293,61.063C 222.099,99.461, 238.645,96, 256,96s 33.901,3.461, 48.993,9.72l 36.745-88.71l0,0l0,0 C 315.327,6.058, 286.373,0, 256,0C 225.628,0, 196.673,6.057, 170.262,17.010z" data-tags="support, help, life, lifebuoy" />
<glyph unicode="&#x62;" d="M 256,480C 114.614,480,0,444.184,0,400l0-64 c0-44.183, 114.611-80, 256-80c 141.385,0, 256,35.817, 256,80L 512,400 C 512,444.184, 397.385,480, 256,480 zM 255.193,224C 140.566,224, 43.94,247.543, 11.32,280C 3.705,272.423,0,264.361,0,256l0-64 c0-44.184, 114.611-80, 256-80 c 141.385,0, 256,35.816, 256,80l0,64 c0,8.361-4.516,16.423-12.131,24C 467.25,247.543, 369.82,224, 255.193,224zM 255.193,80C 140.566,80, 43.94,103.544, 11.32,136C 3.705,128.424,0,120.361,0,112l0-64 c0-44.183, 114.611-80, 256-80 c 141.385,0, 256,35.817, 256,80l0,64 c0,8.361-4.516,16.424-12.131,24C 467.25,103.544, 369.82,80, 255.193,80z" data-tags="database, server, host, storage, save, datecenter" />
<glyph unicode="&#xe268;" d="M 390.979-32c-27.208,0.001-61.186,16.608-75.809,53.702c-2.034,4.84-4.271,10.714-6.859,17.509 c-8.285,21.749-20.806,54.616-33.892,68.23c-4.79,4.984-8.495,8.599-11.473,11.504c-2.673,2.607-4.921,4.801-6.946,7.019 c-2.025-2.219-4.273-4.412-6.948-7.022c-2.976-2.904-6.68-6.519-11.468-11.5c-13.086-13.616-25.608-46.488-33.895-68.239 c-2.586-6.791-4.823-12.661-6.856-17.499C 182.208-15.391, 148.231-32, 121.025-32c-5.303,0-10.138,0.646-14.373,1.918 c-26.772,8.046-43.012,37.939-40.411,74.386l 0.372,4.206c 3.287,29.404, 21.199,58.458, 50.435,81.806 c 25.344,20.238, 55.31,32.812, 78.204,32.812c 4.53,0, 8.712-0.494, 12.519-1.472l 15.711,32.209 c-16.148,40.414-39.152,100.774-57.123,153.646c-10.015,29.463-17.448,53.594-22.094,71.721 c-7.352,28.691-6.883,38.393-3.916,44.132L 148.95,480l 107.053-219.465L 363.049,479.999l 8.602-16.635 c 2.967-5.739, 3.438-15.441-3.915-44.132c-4.646-18.126-12.079-42.257-22.093-71.72c-17.97-52.868-40.974-113.229-57.123-153.646 l 15.711-32.209c 3.806,0.978, 7.987,1.472, 12.518,1.472c 22.895,0, 52.861-12.574, 78.206-32.814 c 24.995-19.962, 41.713-44.097, 48.090-69.052l 1.179,0.564l 1.535-17.522c 2.603-36.445-13.635-66.338-40.404-74.386 c-4.235-1.272-9.071-1.918-14.373-1.918C 390.98-32, 390.979-32, 390.979-32z M 346.841,39.052 c 18.936-34.353, 35.854-39.491, 44.263-39.491c 11.447,0, 20.018,9.238, 21.691,18.169c 1.097,5.871, 1.296,11.914, 0.592,17.961 c-2.837,24.156-19.338,44.898-32.678,58.044c-18.334,18.065-38.889,30.062-52.085,35.3c-1.313,0.457-2.121,0.526-2.489,0.526 c-0.255,0-0.354-0.031-0.355-0.031C 321.937,127.034, 317.342,98.010, 346.841,39.052z M 183.13,129.035 c-13.115-5.24-33.545-17.236-51.764-35.301c-13.26-13.145-29.656-33.888-32.475-58.052c-0.704-6.030-0.506-12.069, 0.589-17.953 c 1.661-8.93, 10.179-18.169, 21.556-18.169c 8.356,0, 25.17,5.139, 43.991,39.49c 29.312,58.938, 24.764,87.944, 20.903,90.493 c0-0.001-0.001-0.001-0.004-0.001c-0.020,0-0.125,0.018-0.32,0.018C 185.239,129.561, 184.438,129.492, 183.13,129.035z" data-tags="scissors, cut" />
<glyph unicode="&#x6a;" d="M 416,160L 384,128L 320,288L 256,96L 160,448L 96,128L0,128L0,96L 122.235,96L 164.794,308.803L 225.128,87.58L 252.937-14.385L 322.734,195.005L 354.288,116.115L 372.313,71.057L 429.256,128L 512,128L 512,160 z" data-tags="health, medicine, medical, pulse" />
<glyph unicode="&#x6b;" d="M 258.181,254.091l 94.386,29.34L 256,351.723L 256,480 L 152.532,405.466L 32,448l 42.533-120.533L0,224l 128,0 l 68.567-96.568l 29.341,94.387 L 448-32l 64,64L 258.181,254.091z M 202.327,277.672l-19.579-62.986l-38.084,53.010L 78.712,267.696 l 39.447,52.861L 96.979,383.021l 62.464-21.182 l 52.862,39.447l0-65.952 l 53.008-38.084L 202.327,277.672z" data-tags="wand, magic, wizard" />
<glyph unicode="&#x3c;" d="M 256,384C 144.341,384, 47.559,318.979,0,224c 47.559-94.979, 144.341-160, 256-160c 111.657,0, 208.439,65.021, 256,160 C 464.442,318.979, 367.657,384, 256,384z M 382.225,299.148c 30.081-19.187, 55.571-44.887, 74.717-75.148 c-19.146-30.261-44.637-55.961-74.718-75.149C 344.427,124.743, 300.779,112, 256,112c-44.78,0-88.428,12.743-126.225,36.852 C 99.695,168.038, 74.205,193.738, 55.058,224c 19.146,30.262, 44.637,55.962, 74.717,75.148c 1.959,1.25, 3.938,2.461, 5.929,3.65 C 130.725,289.134, 128,274.387, 128,259c0-70.692, 57.308-128, 128-128s 128,57.308, 128,128c0,15.387-2.725,30.134-7.704,43.799 C 378.286,301.61, 380.265,300.398, 382.225,299.148z M 256,275c0-26.51-21.49-48-48-48s-48,21.49-48,48s 21.49,48, 48,48 S 256,301.51, 256,275z" data-tags="eye, views, vision, visit" />
<glyph unicode="&#xe269;" d="M 419.661,331.792 C 458.483,304.277 490.346,267.246 512,224 C 464.439,129.021 367.657,64 256,64 C 224.717,64 194.604,69.106 166.411,78.542 L 205.389,117.52 C 221.918,113.87 238.875,112 256,112 C 300.779,112 344.427,124.743 382.223,148.852 C 412.304,168.040 437.795,193.74 456.941,224.001 C 438.415,253.284 413.934,278.276 385.116,297.248 L 419.661,331.792 ZM 256,131 C 244.638,131 233.624,132.488 223.136,135.267 L 379.729,291.859 C 382.51,281.373 384,270.362 384,259 C 384,188.308 326.692,131 256,131 ZM 480,480l-26.869,0 L 343.325,370.194C 315.787,379.156, 286.448,384, 256,384C 144.341,384, 47.559,318.979,0,224 c 21.329-42.596, 52.564-79.154, 90.597-106.534L0,26.869L0,0 l 26.869,0 L 480,453.131L 480,480 z M 208,323c 24.022,0, 43.923-17.647, 47.446-40.685 l-54.762-54.762C 177.647,231.077, 160,250.978, 160,275C 160,301.51, 181.49,323, 208,323z M 55.058,224 c 19.146,30.262, 44.637,55.962, 74.717,75.148c 1.959,1.25, 3.938,2.461, 5.929,3.65C 130.725,289.134, 128,274.387, 128,259 c0-29.262, 9.825-56.224, 26.349-77.781l-29.275-29.275C 97.038,170.765, 73.197,195.33, 55.058,224z" data-tags="eye-blocked, views, vision, visit, banned, blocked, forbidden, private" />
<glyph unicode="&#x6e;" d="M 329.372,105.372L 224,210.745L 224,352L 288,352L 288,237.255L 374.628,150.628 zM 256,480C 114.615,480,0,365.385,0,224s 114.615-256, 256-256s 256,114.615, 256,256S 397.385,480, 256,480z M 256,32 c-106.039,0-192,85.961-192,192c0,106.039, 85.961,192, 192,192c 106.039,0, 192-85.961, 192-192C 448,117.961, 362.039,32, 256,32z" data-tags="clock, time, schedule" />
<glyph unicode="&#x6f;" d="M 256,480C 114.615,480,0,365.385,0,224s 114.615-256, 256-256s 256,114.615, 256,256S 397.385,480, 256,480z M 256,16 c-114.875,0-208,93.125-208,208S 141.125,432, 256,432s 208-93.125, 208-208S 370.875,16, 256,16zM 304,272l-144,80l-32,0 l0-32 l 80-144l 144-80l 32,0 l0,32 L 304,272z M 256,192c-17.673,0-32,14.327-32,32c0,17.673, 14.327,32, 32,32 c 17.673,0, 32-14.327, 32-32C 288,206.327, 273.673,192, 256,192z" data-tags="compass, direction, map, locate" />
<glyph unicode="&#xe01b;" d="M 224,96A32,32 13140 1 0 288,96A32,32 13140 1 0 224,96zM 256,416c-96.026,0-182.161-42.307-240.815-109.286l 24.081-21.071C 92.055,345.923, 169.577,384, 256,384 c 86.423,0, 163.945-38.077, 216.734-98.357l 24.081,21.071C 438.161,373.693, 352.027,416, 256,416zM 256,320c-67.218,0-127.513-29.615-168.571-76.5l 24.082-21.071C 146.703,262.616, 198.385,288, 256,288 c 57.616,0, 109.297-25.384, 144.489-65.571l 24.082,21.071C 383.513,290.385, 323.219,320, 256,320zM 256,224c-38.41,0-72.865-16.923-96.326-43.715l 24.082-21.071C 201.352,179.308, 227.192,192, 256,192 c 28.808,0, 54.648-12.692, 72.245-32.786l 24.081,21.071C 328.865,207.077, 294.41,224, 256,224z" data-tags="connection, broadcast, wifi, wave, feed" />
<glyph unicode="&#xe271;" d="M 448,416l0-416 L 112,0 c-26.511,0-48,21.49-48,48c0,26.509, 21.489,48, 48,48l 304,0 L 416,480 L 96,480 C 60.801,480, 32,451.2, 32,416l0-384  c0-35.2, 28.801-64, 64-64l 384,0 L 480,416 L 448,416 zM 128,64L 416,64L 416,32L 128,32z" data-tags="book, reading" />
<glyph unicode="&#x79;" d="M 192,480L0,224L 192,224L 64-32L 512,288L 256,288L 448,480 z" data-tags="lightning, power" />
<glyph unicode="&#xe013;" d="M 128,448L 384,448L 384,384L 128,384zM 480,352L 32,352 C 14.4,352,0,337.6,0,320l0-160 c0-17.6, 14.398-32, 32-32l 96,0 l0-128 l 256,0 L 384,128 l 96,0 c 17.6,0, 32,14.4, 32,32L 512,320  C 512,337.6, 497.6,352, 480,352z M 352,32L 160,32 L 160,192 l 192,0 L 352,32 z M 487.2,304c0-12.813-10.387-23.2-23.199-23.2 c-12.813,0-23.201,10.387-23.201,23.2s 10.388,23.2, 23.201,23.2C 476.814,327.2, 487.2,316.813, 487.2,304z" data-tags="print, printer" />
<glyph unicode="&#x71;" d="M 426.67,480L 85.343,480 C 38.405,480,0,441.594,0,394.656l0-341.314 C0,6.375, 38.406-32, 85.344-32L 426.67-32 c 46.938,0, 85.33,38.374, 85.33,85.342L 512,394.656 C 512,441.594, 473.608,480, 426.67,480z M 139.472,64.376C 115.487,64.376, 96,83.722, 96,107.69 c0,23.842, 19.486,43.406, 43.472,43.406c 24.079,0, 43.53-19.564, 43.53-43.406C 183.001,83.722, 163.55,64.376, 139.472,64.376z  M 248.734,64.002c0,40.905-15.904,79.409-44.73,108.222c-28.857,28.875-67.188,44.813-107.952,44.813L 96.052,279.63 c 118.826,0, 215.563-96.721, 215.563-215.627L 248.734,64.002L 248.734,64.002z M 359.814,64.002 c0,145.531-118.329,263.97-263.688,263.97L 96.126,390.596 c 180.001,0, 326.473-146.562, 326.473-326.596L 359.814,64.002L 359.814,64.002z" data-tags="feed, rss, social" />
<glyph unicode="&#x43;" d="M 160,288L 224,288L 224,224L 160,224zM 256,288L 320,288L 320,224L 256,224zM 352,288L 416,288L 416,224L 352,224zM 64,96L 128,96L 128,32L 64,32zM 160,96L 224,96L 224,32L 160,32zM 256,96L 320,96L 320,32L 256,32zM 160,192L 224,192L 224,128L 160,128zM 256,192L 320,192L 320,128L 256,128zM 352,192L 416,192L 416,128L 352,128zM 64,192L 128,192L 128,128L 64,128zM 416,480l0-32 l-64,0 L 352,480 L 128,480 l0-32 L 64,448 L 64,480 L0,480 l0-512 l 480,0 L 480,480 L 416,480 z M 448,0L 32,0 L 32,352 l 416,0 L 448,0 z" data-tags="calendar, schedule, date, time, day" />
<glyph unicode="&#x44;" d="M 64,320L 96,320L 96,288L 64,288zM 128,320L 160,320L 160,288L 128,288zM 192,320L 224,320L 224,288L 192,288zM 256,320L 288,320L 288,288L 256,288zM 320,320L 352,320L 352,288L 320,288zM 384,320L 416,320L 416,288L 384,288zM 64,256L 96,256L 96,224L 64,224zM 128,256L 160,256L 160,224L 128,224zM 192,256L 224,256L 224,224L 192,224zM 256,256L 288,256L 288,224L 256,224zM 320,256L 352,256L 352,224L 320,224zM 384,256L 416,256L 416,224L 384,224zM 64,192L 96,192L 96,160L 64,160zM 128,192L 160,192L 160,160L 128,160zM 192,192L 224,192L 224,160L 192,160zM 256,192L 288,192L 288,160L 256,160zM 320,192L 352,192L 352,160L 320,160zM 384,192L 416,192L 416,160L 384,160zM 64,128L 96,128L 96,96L 64,96zM 128,128L 160,128L 160,96L 128,96zM 192,128L 224,128L 224,96L 192,96zM 256,128L 288,128L 288,96L 256,96zM 320,128L 352,128L 352,96L 320,96zM 384,128L 416,128L 416,96L 384,96zM 64,64L 96,64L 96,32L 64,32zM 128,64L 160,64L 160,32L 128,32zM 192,64L 224,64L 224,32L 192,32zM 256,64L 288,64L 288,32L 256,32zM 320,64L 352,64L 352,32L 320,32zM 384,64L 416,64L 416,32L 384,32zM 416,448L 416,480 l-64,0 l0-64 l-32,0 L 320,448 L 160,448 l0-32 l-32,0 L 128,480 L 64,480 l0-32 L0,448 l0-480 l 480,0 L 480,448 L 416,448 z M 448,0L 32,0 L 32,352 l 416,0 L 448,0 z" data-tags="calendar, schedule, date, time, day" />
<glyph unicode="&#xe273;" d="M 448,416l-48,0 l0-16 c0-17.645-14.355-32-32-32s-32,14.355-32,32L 336,416 L 176,416 l0-16 c0-17.645-14.355-32-32-32s-32,14.355-32,32L 112,416 L 64,416  c-17.6,0-32-14.4-32-32l0-352 c0-17.6, 14.4-32, 32-32l 384,0 c 17.6,0, 32,14.4, 32,32L 480,384 C 480,401.6, 465.6,416, 448,416z M 448,32.058 c-0.017-0.020-0.038-0.041-0.058-0.058L 64.057,32 c-0.020,0.017-0.041,0.038-0.057,0.058L 64,320 l 384,0 L 448,32.058 zM 144,384c 8.836,0, 16,7.164, 16,16L 160,464 c0,8.836-7.164,16-16,16s-16-7.164-16-16l0-64 C 128,391.164, 135.164,384, 144,384zM 368,384c 8.836,0, 16,7.164, 16,16L 384,464 c0,8.836-7.164,16-16,16s-16-7.164-16-16l0-64 C 352,391.164, 359.164,384, 368,384zM 288,288L 128,288L 128,256L 256,256L 256,192L 128,192L 128,160L 256,160L 256,96L 128,96L 128,64L 288,64 zM 352,64L 384,64L 384,288L 320,288L 320,256L 352,256 zM 436-12L 76-12 c-17.6,0-32,10.4-32,28l0-16 c0-17.6, 14.4-32, 32-32l 360,0 c 17.6,0, 32,14.4, 32,32l0,16 C 468-1.6, 453.6-12, 436-12z" data-tags="calendar, schedule, date, time, day" />
<glyph unicode="&#x77;" d="M 224,192L 224,416 C 100.288,416,0,315.712,0,192s 100.288-224, 224-224s 224,100.288, 224,224c0,36.017-8.514,70.042-23.618,100.191 L 224,192zM 456.382,356.191C 419.606,429.599, 343.695,480, 256,480l0-224 L 456.382,356.191z" data-tags="pie, statistics, stats, chart, graph" />
<glyph unicode="&#x76;" d="M0,64L 512,64L 512,0L0,0zM 64,192L 128,192L 128,96L 64,96zM 160,320L 224,320L 224,96L 160,96zM 256,224L 320,224L 320,96L 256,96zM 352,416L 416,416L 416,96L 352,96z" data-tags="bars, statistics, stats, chart, graph" />
<glyph unicode="&#x75;" d="M 496,0L 384,0L 384,16L 368,16L 368,0L 208,0L 208,16L 192,16L 192,0L 80,0L 80,16L 64,16L 64,0L 32,0L 32,144L 48,144L 48,160L 32,160L 32,272L 48,272L 48,288L 32,288L 32,400L 48,400L 48,416L 32,416L 32,480L0,480L0-32L 512-32L 512,16L 496,16 zM 220,284L 212,276L 212,149.941L 220,157.941 zM 204,268L 196,260L 196,133.941L 204,141.941 zM 188,125.941L 188,258L 180,262L 180,128.833L 187.261,125.202 zM 268,332L 260,324L 260,197.941L 268,205.941 zM 236,300L 228,292L 228,165.941L 236,173.941 zM 172,266L 164,270L 164,136.833L 172,132.833 zM 252,316L 244,308L 244,181.941L 252,189.941 zM 124,290L 116,294L 116,160.833L 124,156.833 zM 92,306L 84,310L 84,176.833L 92,172.833 zM 156,274L 148,278L 148,144.833L 156,140.833 zM 108,298L 100,302L 100,168.833L 108,164.833 zM 76,314L 68,318L 68,184.833L 76,180.833 zM 284,348L 276,340L 276,213.941L 284,221.941 zM 140,282L 132,286L 132,152.833L 140,148.833 zM 412,316L 404,308L 404,137.267L 412,149.267 zM 428,332L 420,324L 420,161.267L 428,173.267 zM 444,348L 436,340L 436,185.267L 444,197.267 zM 476,380L 468,372L 468,233.267L 476,245.267 zM 460,364L 452,356L 452,209.267L 460,221.267 zM 508,412L 500,404L 500,281.267L 508,293.267 zM 492,396L 484,388L 484,257.267L 492,269.267 zM 348,312L 340,317.333L 340,162.666L 348,152 zM 332,322.667L 324,328L 324,184L 332,173.333 zM 300,344L 292,349.333L 292,226.667L 300,216 zM 316,333.333L 308,338.667L 308,205.333L 316,194.666 zM 364,301.333L 356,306.667L 356,141.333L 364,130.666 zM 396,300L 388,292L 388,113.268L 396,125.267 zM 380,290.667L 372,296L 372,119.999L 380,109.333 zM 384,64L 288,192L 192,96L 64,160L 64,32L 512,32L 512,256 z" data-tags="chart, stats, statistics, dualtone, plot, graph" />
<glyph unicode="&#x32;" d="M 512,338.75L 466.747,384L 377.374,294.624L 326.624,345.375L 415.999,434.75L 370.749,480L 281.374,390.625L 224,448L 180.687,404.688L 436.688,148.687L 480,191.999L 422.624,249.375 zM 137.374,105.373c 82.884-82.881, 192.597-18.181, 259.646,37.732L 175.108,365.017 C 119.196,297.969, 54.494,188.256, 137.374,105.373zM 95.999,127.998L 159.996,64L 64-31.996L 0.002,32.001z" data-tags="power cord, cord, plugin, extension" />
<glyph unicode="&#x33;" d="M 256,448L 32,352L 256,256L 480,352 zM 32,64L 224-16L 224,208L 32,288 zM 288-16L 480,64L 480,288L 288,208 z" data-tags="cube, box, 3d, miscellaneous" />
<glyph unicode="&#x34;" d="M 479.165,351.875L 394.94,351.875 c-21.715,0.033-43.348,1.503-22.252,38.729c 21.138,37.3, 36.059,89.521-48.802,89.521 c-84.857,0-69.935-52.221-48.797-89.521c 21.096-37.226-0.538-38.694-22.255-38.729l-91.938,0 c-18.060,0-32.835-14.778-32.835-32.834 l0-102.189 c0-21.756, 5.904-43.513-31.393-22.378C 59.372,215.611,0,230.531,0,145.672c0-84.854, 59.37-69.935, 96.67-48.798 c 37.297,21.137, 31.393-0.62, 31.393-22.38l0-73.783 c0-18.062, 14.777-32.835, 32.835-32.835l 91.811,0 c 21.76,0, 43.517,8.706, 22.382,46.004 c-21.137,37.295-36.061,89.519, 48.797,89.519c 84.858,0, 69.938-52.221, 48.8-89.519c-21.135-37.299, 0.623-46.005, 22.381-46.005l 84.096,0 c 18.062,0, 32.837,14.777, 32.837,32.835L 512.002,319.042 C 512.002,337.099, 497.227,351.875, 479.165,351.875z" data-tags="puzzle, piece, app, addon, extension" />
<glyph unicode="&#x72;" d="M 348.916,316.476l-32.476,32.461L 154.035,186.566c-26.907-26.896-26.907-70.524,0-97.422 c 26.902-26.896, 70.53-26.896, 97.437,0l 194.886,194.854c 44.857,44.831, 44.857,117.531,0,162.363 c-44.833,44.852-117.556,44.852-162.391,0L 79.335,241.788l 0.017-0.016c-0.145-0.152-0.306-0.288-0.438-0.423 c-62.551-62.548-62.551-163.928,0-226.453c 62.527-62.528, 163.934-62.528, 226.494,0c 0.137,0.137, 0.258,0.284, 0.41,0.438l 0.016-0.017 l 139.666,139.646l-32.493,32.46L 273.35,47.792l-0.008,0 c-0.148-0.134-0.282-0.285-0.423-0.422 c-44.537-44.529-116.99-44.529-161.538,0c-44.531,44.521-44.531,116.961,0,161.489c 0.152,0.152, 0.302,0.291, 0.444,0.423l-0.023,0.030 l 204.64,204.583c 26.856,26.869, 70.572,26.869, 97.443,0c 26.856-26.867, 26.856-70.574,0-97.42L 218.999,121.625 c-8.968-8.961-23.527-8.961-32.486,0c-8.947,8.943-8.947,23.516,0,32.46L 348.916,316.476z" data-tags="attachment, paperclip" />
<glyph unicode="&#x74;" d="M 256.003,480c-85.374,0-154.661-68.339-154.661-152.54c0-42.102, 25.089-86.239, 53.788-133.976 c 28.7-47.737, 6.022-100.49, 103.695-99.073c 93.617,1.376, 69.35,44.274, 96.629,92.011c 27.289,47.736, 55.205,98.938, 55.205,141.039 C 410.66,411.662, 341.371,480, 256.003,480zM 191.076,80.777l0-40.615 c 19.95-6.488, 41.896-10.088, 64.927-10.088c 23.029,0, 44.97,3.6, 64.921,10.086l0,37.525  c-11.158-10.273-29.447-13.1-62.1-13.645C 222.605,63.443, 202.953,67.848, 191.076,80.777zM 191.753,14.944c 2.507-13.705, 13.3-46.944, 64.25-46.944c 50.949,0, 61.742,33.239, 64.25,46.944 c-28.826-8.815-41.977-9.291-64.25-9.291C 233.728,5.653, 220.577,6.129, 191.753,14.944z" data-tags="lamp, idea, tip, light, bulb" />
<glyph unicode="&#x73;" d="M 272,480l-48-48l 48-48L 160,256L 48,256 l 88-88L0-12.308L0-32 l 19.692,0 L 200,104l 88-88L 288,128 l 128,112l 48-48l 48,48L 272,480z M 224,208l-32,32 l 112,112l 32-32L 224,208z" data-tags="pushpin, pin" />
<glyph unicode="&#x63;" d="M 256,480C 167.634,480, 96,408.366, 96,320c0-160, 160-352, 160-352s 160,192, 160,352C 416,408.366, 344.365,480, 256,480z M 256,224 c-53.020,0-96,42.98-96,96s 42.98,96, 96,96s 96-42.98, 96-96S 309.020,224, 256,224z" data-tags="location, map, marker, pin" />
<glyph unicode="&#xe274;" d="M 131.851,338.143c 2.709-85.392, 23.232-156.27, 61.189-211.080c 17.343-25.043, 38.449-46.778, 62.96-64.873 c 24.511,18.095, 45.618,39.83, 62.959,64.873c 37.957,54.811, 58.48,125.688, 61.189,211.080c-40.225,9.645-79.752,25.45-124.149,49.495 C 211.596,363.589, 172.078,347.788, 131.851,338.143zM 458.873,406.909C 387.436,411.877, 329.919,434.868, 256.002,480C 182.080,434.868, 124.563,411.877, 53.127,406.909 C 33.451,95.568, 202.896-3.16, 256.002-32C 309.105-3.16, 478.55,95.568, 458.873,406.909z M 358.422,99.735 c-35.469-51.219-77.048-80.031-102.421-95.026c-25.374,14.995-66.952,43.807-102.422,95.026 c-49.507,71.489-72.928,164.977-69.753,278.177c 56.394,7.775, 107.891,27.271, 172.175,64.812 c 64.281-37.541, 115.777-57.037, 172.173-64.812C 431.35,264.712, 407.929,171.225, 358.422,99.735z" data-tags="shield, security, defense, protection, anti virus" />
<glyph unicode="&#x35;" d="M 254.059,418.977C 205.881,476.227, 169.369,480, 96,480l0-256 c 128.267,64, 142.636-8.335, 223.506-1.023 C 399.234,230.197, 467.031,291.564, 512,352C 384.644,322.547, 320.54,339.977, 254.059,418.977zM0,480L 64,480L 64-32L0-32z" data-tags="flag, report, mark" />
<glyph unicode="&#xe275;" d="M 128,447.5c 19.393-0.786, 33.686-2.681, 46.365-6.903c 19.163-6.381, 35.674-19.009, 55.209-42.224 c 54.165-64.364, 108.925-91.826, 183.107-91.826c 7.729,0, 15.767,0.307, 24.147,0.925c-10.090-11.872-20.705-23.466-31.729-34.059 c-15.453-14.849-30.499-26.521-44.72-34.692c-14.99-8.612-29.547-13.609-43.263-14.851c-1.81-0.164-3.533-0.243-5.271-0.243 c-16.82,0-29.746,7.817-49.442,20.573c-22.574,14.618-50.668,32.812-91.546,32.812c-13.692,0-27.906-2.034-42.859-6.161L 127.998,447.5  M 96,480l0-256 c 30.587,15.262, 54.737,21.011, 74.859,21.011c 61.341,0, 85.367-53.384, 140.988-53.384c 2.648,0, 5.354,0.12, 8.152,0.373 c 79.729,7.221, 147.031,99.564, 192,160c-38.205-8.835-70.726-13.453-99.318-13.453c-66.72,0-112.085,25.129-158.623,80.43 C 205.881,476.227, 169.369,480, 96,480L 96,480zM0,480L 64,480L 64-32L0-32z" data-tags="flag, report, mark" />
<glyph unicode="&#xe023;" d="M 96,480L 96-32L 256,128L 416-32L 416,480 z" data-tags="bookmark, ribbon" />
<glyph unicode="&#xe276;" d="M 96,480l0-512 l 160,160l 160-160L 416,480 L 96,480 z M 384,45.255l-128,128l-128-128L 128,448 l 256,0 L 384,45.255 z" data-tags="bookmark, ribbon" />
<glyph unicode="&#xe277;" d="M 376,448c-51.956,0-97.1-29.138-120-71.96C 233.099,418.862, 187.955,448, 136,448C 60.889,448,0,387.11,0,312c0-184, 256-312, 256-312 s 256,128, 256,312C 512,387.11, 451.111,448, 376,448z" data-tags="heart, like, love, favorite" />
<glyph unicode="&#xe278;" d="M 256,0l-13.97,6.779C 232.147,11.574,0,126.229,0,300.513C0,381.838, 67.738,448, 151,448c 39.83,0, 77.258-15.237, 105-41.462 C 283.742,432.763, 321.17,448, 361,448c 83.262,0, 151-66.162, 151-147.487c0-174.284-232.147-288.938-242.030-293.733L 256,0z M 151,384 c-47.972,0-87-37.452-87-83.487c0-67.976, 54.123-127.616, 99.526-165.68c 36.25-30.39, 73.062-52.351, 92.474-63.081 c 19.412,10.73, 56.224,32.691, 92.474,63.081C 393.877,172.896, 448,232.537, 448,300.513C 448,346.548, 408.972,384, 361,384 c-32.336,0-61.831-17.070-76.974-44.55L 256,288.59l-28.026,50.86C 212.831,366.93, 183.336,384, 151,384z" data-tags="heart, like, love, favorite" />
<glyph unicode="&#x5b;" d="M 464,192 C 500.5,192 480,96 448,96 C 464,96 448,16 416,16 C 416-16 384-32 352-32 C 216.824-32 264.368,1.825 128,16 L 128,272 C 248.461,308.134 368,398.712 368,480 C 394.5,480 464,448 368,288 C 368,288 448,288 464,288 C 512,288 496,192 464,192 ZM 96,272 L 96,16 L 128,16 L 128,0 L 64,0 C 46.4,0 32,21.6 32,48 L 32,240 C 32,266.4 46.4,288 64,288 L 128,288 L 128,272 L 96,272 Z" data-tags="thumbs-up, up, like, rate, vote up" />
<glyph unicode="&#x5c;" d="M 48,256 C 11.5,256 32,352 64,352 C 48,352 64,432 96,432 C 96,464 128,480 160,480 C 295.176,480 247.632,446.175 384,432 L 384,176 C 263.539,139.866 144,49.288 144-32 C 117.5-32 48,0 144,160 C 144,160 64,160 48,160 C 0,160 16,256 48,256 ZM 416,176 L 416,432 L 384,432 L 384,448 L 448,448 C 465.6,448 480,426.4 480,400 L 480,208 C 480,181.6 465.6,160 448,160 L 384,160 L 384,176 L 416,176 Z" data-tags="thumbs-up, up, like, rate, vote down" />
<glyph unicode="&#x40;" d="M 512,281.475l-176.89,25.704L 256,467.47l-79.108-160.291L0,281.475l 128-124.769L 97.784-19.47L 256,63.709l 158.216-83.179 l-30.217,176.176L 512,281.475z M 256,103.251l-111.731-58.74l 21.338,124.415l-90.393,88.111l 124.92,18.152L 256,388.387l 55.868-113.198 l 124.918-18.152l-90.394-88.111l 21.339-124.415L 256,103.251z" data-tags="star, rate, favorite, bookmark" />
<glyph unicode="&#x41;" d="M 512,281.475l-176.89,25.704L 256,467.47l-79.108-160.291L0,281.475l 128-124.769L 97.784-19.47L 256,63.709l 158.216-83.179 l-30.217,176.176L 512,281.475z M 256,103.251l-0.471-0.248L 256,388.387l 55.868-113.198l 124.918-18.152l-90.394-88.111l 21.339-124.415 L 256,103.251z" data-tags="star, rate, half" />
<glyph unicode="&#x42;" d="M 512,281.475L 335.11,307.179L 256,467.47l-79.108-160.291L0,281.475l 128-124.769L 97.784-19.47L 256,63.709l 158.216-83.179 l-30.217,176.176L 512,281.475z" data-tags="star, rate, favorite, bookmark" />
<glyph unicode="&#xe279;" d="M 256,480C 114.615,480,0,365.385,0,224s 114.615-256, 256-256s 256,114.615, 256,256S 397.385,480, 256,480z M 352,352 c 17.673,0, 32-14.327, 32-32s-14.327-32-32-32s-32,14.327-32,32S 334.327,352, 352,352z M 160,352c 17.673,0, 32-14.327, 32-32 s-14.327-32-32-32s-32,14.327-32,32S 142.327,352, 160,352z M 256,64c-58.255,0-109.232,31.137-137.213,77.672l 41.164,24.698 C 179.538,133.796, 215.222,112, 256,112s 76.462,21.796, 96.049,54.37l 41.164-24.698C 365.232,95.137, 314.255,64, 256,64z" data-tags="smiley, emoticon, face" />
<glyph unicode="&#xe280;" d="M 256-32c 141.385,0, 256,114.615, 256,256S 397.385,480, 256,480S0,365.385,0,224S 114.615-32, 256-32z M 256,432 c 114.875,0, 208-93.125, 208-208s-93.125-208-208-208S 48,109.125, 48,224S 141.125,432, 256,432zM 128,320 C 128,337.673 142.327,352 160,352 C 177.673,352 192,337.673 192,320 C 192,302.327 177.673,288 160,288 C 142.327,288 128,302.327 128,320 Z M 320,320 C 320,337.673 334.327,352 352,352 C 369.673,352 384,337.673 384,320 C 384,302.327 369.673,288 352,288 C 334.327,288 320,302.327 320,320 ZM 352.049,166.37 L 393.213,141.672 C 365.232,95.137 314.255,64 256,64 C 197.745,64 146.768,95.137 118.787,141.672 L 159.951,166.37 C 179.538,133.796 215.222,112 256,112 C 296.778,112 332.462,133.796 352.049,166.37 Z" data-tags="smiley, emoticon, face" />
<glyph unicode="&#xe281;" d="M 256,480C 114.615,480,0,365.385,0,224s 114.615-256, 256-256s 256,114.615, 256,256S 397.385,480, 256,480z M 352,352 c 17.673,0, 32-14.327, 32-32s-14.327-32-32-32s-32,14.327-32,32S 334.327,352, 352,352z M 160,352c 17.673,0, 32-14.327, 32-32 s-14.327-32-32-32s-32,14.327-32,32S 142.327,352, 160,352z M 352.049,89.63C 332.462,122.204, 296.777,144, 256,144 c-40.778,0-76.462-21.796-96.049-54.37l-41.164,24.698C 146.767,160.863, 197.745,192, 256,192c 58.254,0, 109.232-31.137, 137.213-77.672 L 352.049,89.63z" data-tags="sad, emoticon, smiley, face" />
<glyph unicode="&#xe282;" d="M 256-32c 141.385,0, 256,114.615, 256,256S 397.385,480, 256,480S0,365.385,0,224S 114.615-32, 256-32z M 256,432 c 114.875,0, 208-93.125, 208-208s-93.125-208-208-208S 48,109.125, 48,224S 141.125,432, 256,432zM 128,320 C 128,337.673 142.327,352 160,352 C 177.673,352 192,337.673 192,320 C 192,302.327 177.673,288 160,288 C 142.327,288 128,302.327 128,320 Z M 320,320 C 320,337.673 334.327,352 352,352 C 369.673,352 384,337.673 384,320 C 384,302.327 369.673,288 352,288 C 334.327,288 320,302.327 320,320 ZM 159.951,89.63 L 118.787,114.328 C 146.768,160.863 197.745,192 256,192 C 314.254,192 365.231,160.863 393.213,114.328 L 352.049,89.63 C 332.462,122.204 296.778,144 256,144 C 215.221,144 179.538,122.204 159.951,89.63 Z" data-tags="sad, emoticon, smiley, face" />
<glyph unicode="&#xe283;" d="M 256,480C 114.615,480,0,365.385,0,224s 114.613-256, 256-256c 141.385,0, 256,114.615, 256,256S 397.385,480, 256,480z M 320,96L 192,96 l0,32 l 128,0 L 320,96 z M 352,352c 17.673,0, 32-14.327, 32-32c0-17.673-14.327-32-32-32s-32,14.327-32,32C 320,337.673, 334.327,352, 352,352z M 160,352 c 17.673,0, 32-14.327, 32-32c0-17.673-14.327-32-32-32s-32,14.327-32,32C 128,337.673, 142.327,352, 160,352z" data-tags="neutral, emoticon, smiley, face" />
<glyph unicode="&#xe284;" d="M 256-32c 141.385,0, 256,114.615, 256,256S 397.385,480, 256,480S0,365.385,0,224S 114.615-32, 256-32z M 256,432 c 114.875,0, 208-93.125, 208-208s-93.125-208-208-208S 48,109.125, 48,224S 141.125,432, 256,432zM 128,320c0-17.673, 14.327-32, 32-32s 32,14.327, 32,32s-14.327,32-32,32S 128,337.673, 128,320z M 320,320 c0-17.673, 14.327-32, 32-32s 32,14.327, 32,32s-14.327,32-32,32S 320,337.673, 320,320z M 192,128l 128,0 l0-32 L 192,96 L 192,128 z" data-tags="neutral, emoticon, smiley, face" />
<glyph unicode="&#xe019;" d="M 64,16A48,48 11340 1 0 160,16A48,48 11340 1 0 64,16zM 384,16A48,48 11340 1 0 480,16A48,48 11340 1 0 384,16zM 480,224L 480,416 L 64,416 C 64,451.346, 35.347,480,0,480l0-32 c 17.645,0, 32-14.355, 32-32l 24.037-206.027C 41.39,198.244, 32,180.223, 32,160 c0-35.347, 28.654-64, 64-64l 384,0 l0,32 L 96,128 c-17.673,0-32,14.327-32,32c0,0.11, 0.007,0.218, 0.008,0.328L 480,224z" data-tags="cart, ecommerce, shopping, products, purchase, buy, store" />
<glyph unicode="&#xe01a;" d="M 406.494,288L 317.573,403.765C 319.134,407.535, 320,411.666, 320,416c0,17.673-14.326,32-32,32c-17.673,0-32-14.327-32-32 s 14.327-32, 32-32c 1.421,0, 2.816,0.102, 4.188,0.282L 366.144,288L 145.857,288 l 73.956,96.282C 221.184,384.102, 222.58,384, 224,384 c 17.673,0, 32,14.327, 32,32s-14.327,32-32,32s-32-14.327-32-32c0-4.334, 0.866-8.465, 2.427-12.234L 105.506,288L0,288 l0-64 l 32,0 l 32-256l 384,0 l 32,256l 32,0 l0,64 L 406.494,288 z M 160,32L 96,32 l0,64 l 64,0 L 160,32 z M 160,160L 96,160 l0,64 l 64,0 L 160,160 z M 288,32l-64,0 l0,64 l 64,0 L 288,32 z M 288,160l-64,0 l0,64 l 64,0 L 288,160 z M 416,32l-64,0 l0,64 l 64,0 L 416,32 z M 416,160l-64,0 l0,64 l 64,0 L 416,160 z" data-tags="basket, cart, ecommerce, shopping, products, purchase, buy, store" />
<glyph unicode="&#xe286;" d="M 464,416L 48,416 C 21.6,416,0,394.4,0,368l0-288 c0-26.4, 21.6-48, 48-48l 416,0 c 26.4,0, 48,21.6, 48,48L 512,368 C 512,394.4, 490.4,416, 464,416z M 48,384 l 416,0 c 8.673,0, 16-7.327, 16-16l0-48 L 32,320 l0,48 C 32,376.673, 39.327,384, 48,384z M 464,64L 48,64 c-8.673,0-16,7.327-16,16L 32,224 l 448,0 l0-144  C 480,71.327, 472.673,64, 464,64zM 64,160L 96,160L 96,96L 64,96zM 128,160L 160,160L 160,96L 128,96zM 192,160L 224,160L 224,96L 192,96z" data-tags="credit, card, purchase, payment, ecommerce" />
<glyph unicode="&#xe287;" d="M 464,416L 48,416 C 21.6,416,0,394.4,0,368l0-288 c0-26.4, 21.6-48, 48-48l 416,0 c 26.4,0, 48,21.6, 48,48L 512,368 C 512,394.4, 490.4,416, 464,416z M 96,96 L 64,96 l0,64 l 32,0 L 96,96 z M 160,96l-32,0 l0,64 l 32,0 L 160,96 z M 224,96l-32,0 l0,64 l 32,0 L 224,96 z M 496,224L 16,224 l0,96 l 480,0 L 496,224 z" data-tags="credit, card, purchase, payment, ecommerce" />
<glyph unicode="&#x20;" horiz-adv-x="256" />
</font>
</defs>
</svg>
